  0
SECTION
  2
HEADER
  9
$ACADVER
  1
AC1024
  9
$ACADMAINTVER
 70
     6
  9
$DWGCODEPAGE
  3
ANSI_1251
  9
$INSBASE
 10
0.0
 20
0.0
 30
0.0
  9
$EXTMIN
 10
1.000000E+20
 20
1.000000E+20
 30
1.000000E+20
  9
$EXTMAX
 10
-1.000000E+20
 20
-1.000000E+20
 30
-1.000000E+20
  9
$LIMMIN
 10
0.0
 20
0.0
  9
$LIMMAX
 10
420.0
 20
297.0
  9
$ORTHOMODE
 70
     0
  9
$REGENMODE
 70
     1
  9
$FILLMODE
 70
     1
  9
$QTEXTMODE
 70
     0
  9
$MIRRTEXT
 70
     0
  9
$LTSCALE
 40
1.0
  9
$ATTMODE
 70
     1
  9
$TEXTSIZE
 40
2.5
  9
$TRACEWID
 40
1.0
  9
$TEXTSTYLE
  7
Standard
  9
$CLAYER
  8
0
  9
$CELTYPE
  6
ByLayer
  9
$CECOLOR
 62
   256
  9
$CELTSCALE
 40
1.0
  9
$DISPSILH
 70
     0
  9
$DIMSCALE
 40
1.0
  9
$DIMASZ
 40
2.5
  9
$DIMEXO
 40
0.625
  9
$DIMDLI
 40
3.75
  9
$DIMRND
 40
0.0
  9
$DIMDLE
 40
0.0
  9
$DIMEXE
 40
1.25
  9
$DIMTP
 40
0.0
  9
$DIMTM
 40
0.0
  9
$DIMTXT
 40
2.5
  9
$DIMCEN
 40
2.5
  9
$DIMTSZ
 40
0.0
  9
$DIMTOL
 70
     0
  9
$DIMLIM
 70
     0
  9
$DIMTIH
 70
     0
  9
$DIMTOH
 70
     0
  9
$DIMSE1
 70
     0
  9
$DIMSE2
 70
     0
  9
$DIMTAD
 70
     1
  9
$DIMZIN
 70
     8
  9
$DIMBLK
  1

  9
$DIMASO
 70
     1
  9
$DIMSHO
 70
     1
  9
$DIMPOST
  1

  9
$DIMAPOST
  1

  9
$DIMALT
 70
     0
  9
$DIMALTD
 70
     3
  9
$DIMALTF
 40
0.03937
  9
$DIMLFAC
 40
1.0
  9
$DIMTOFL
 70
     1
  9
$DIMTVP
 40
0.0
  9
$DIMTIX
 70
     0
  9
$DIMSOXD
 70
     0
  9
$DIMSAH
 70
     0
  9
$DIMBLK1
  1

  9
$DIMBLK2
  1

  9
$DIMSTYLE
  2
ISO-25
  9
$DIMCLRD
 70
     0
  9
$DIMCLRE
 70
     0
  9
$DIMCLRT
 70
     0
  9
$DIMTFAC
 40
1.0
  9
$DIMGAP
 40
0.625
  9
$DIMJUST
 70
     0
  9
$DIMSD1
 70
     0
  9
$DIMSD2
 70
     0
  9
$DIMTOLJ
 70
     0
  9
$DIMTZIN
 70
     8
  9
$DIMALTZ
 70
     0
  9
$DIMALTTZ
 70
     0
  9
$DIMUPT
 70
     0
  9
$DIMDEC
 70
     2
  9
$DIMTDEC
 70
     2
  9
$DIMALTU
 70
     2
  9
$DIMALTTD
 70
     3
  9
$DIMTXSTY
  7
Standard
  9
$DIMAUNIT
 70
     0
  9
$DIMADEC
 70
     0
  9
$DIMALTRND
 40
0.0
  9
$DIMAZIN
 70
     0
  9
$DIMDSEP
 70
    44
  9
$DIMATFIT
 70
     3
  9
$DIMFRAC
 70
     0
  9
$DIMLDRBLK
  1

  9
$DIMLUNIT
 70
     2
  9
$DIMLWD
 70
    -2
  9
$DIMLWE
 70
    -2
  9
$DIMTMOVE
 70
     0
  9
$DIMFXL
 40
1.0
  9
$DIMFXLON
 70
     0
  9
$DIMJOGANG
 40
0.785398
  9
$DIMTFILL
 70
     0
  9
$DIMTFILLCLR
 70
     0
  9
$DIMARCSYM
 70
     0
  9
$DIMLTYPE
  6

  9
$DIMLTEX1
  6

  9
$DIMLTEX2
  6

  9
$DIMTXTDIRECTION
 70
     0
  9
$LUNITS
 70
     2
  9
$LUPREC
 70
     3
  9
$SKETCHINC
 40
1.0
  9
$FILLETRAD
 40
10.0
  9
$AUNITS
 70
     0
  9
$AUPREC
 70
     0
  9
$MENU
  1
.
  9
$ELEVATION
 40
0.0
  9
$PELEVATION
 40
0.0
  9
$THICKNESS
 40
0.0
  9
$LIMCHECK
 70
     0
  9
$CHAMFERA
 40
10.0
  9
$CHAMFERB
 40
10.0
  9
$CHAMFERC
 40
20.0
  9
$CHAMFERD
 40
0.0
  9
$SKPOLY
 70
     0
  9
$TDCREATE
 40
2455023.05402618
  9
$TDUCREATE
 40
2455022.637359514
  9
$TDUPDATE
 40
2456138.547885359
  9
$TDUUPDATE
 40
2456138.131218692
  9
$TDINDWG
 40
0.0000000116
  9
$TDUSRTIMER
 40
2456005.263645822
  9
$USRTIMER
 70
     1
  9
$ANGBASE
 50
0.0
  9
$ANGDIR
 70
     0
  9
$PDMODE
 70
     0
  9
$PDSIZE
 40
0.0
  9
$PLINEWID
 40
0.0
  9
$SPLFRAME
 70
     0
  9
$SPLINETYPE
 70
     6
  9
$SPLINESEGS
 70
     8
  9
$HANDSEED
  5
274
  9
$SURFTAB1
 70
     6
  9
$SURFTAB2
 70
     6
  9
$SURFTYPE
 70
     6
  9
$SURFU
 70
     6
  9
$SURFV
 70
     6
  9
$UCSBASE
  2

  9
$UCSNAME
  2

  9
$UCSORG
 10
0.0
 20
0.0
 30
0.0
  9
$UCSXDIR
 10
1.0
 20
0.0
 30
0.0
  9
$UCSYDIR
 10
0.0
 20
1.0
 30
0.0
  9
$UCSORTHOREF
  2

  9
$UCSORTHOVIEW
 70
     0
  9
$UCSORGTOP
 10
0.0
 20
0.0
 30
0.0
  9
$UCSORGBOTTOM
 10
0.0
 20
0.0
 30
0.0
  9
$UCSORGLEFT
 10
0.0
 20
0.0
 30
0.0
  9
$UCSORGRIGHT
 10
0.0
 20
0.0
 30
0.0
  9
$UCSORGFRONT
 10
0.0
 20
0.0
 30
0.0
  9
$UCSORGBACK
 10
0.0
 20
0.0
 30
0.0
  9
$PUCSBASE
  2

  9
$PUCSNAME
  2

  9
$PUCSORG
 10
0.0
 20
0.0
 30
0.0
  9
$PUCSXDIR
 10
1.0
 20
0.0
 30
0.0
  9
$PUCSYDIR
 10
0.0
 20
1.0
 30
0.0
  9
$PUCSORTHOREF
  2

  9
$PUCSORTHOVIEW
 70
     0
  9
$PUCSORGTOP
 10
0.0
 20
0.0
 30
0.0
  9
$PUCSORGBOTTOM
 10
0.0
 20
0.0
 30
0.0
  9
$PUCSORGLEFT
 10
0.0
 20
0.0
 30
0.0
  9
$PUCSORGRIGHT
 10
0.0
 20
0.0
 30
0.0
  9
$PUCSORGFRONT
 10
0.0
 20
0.0
 30
0.0
  9
$PUCSORGBACK
 10
0.0
 20
0.0
 30
0.0
  9
$USERI1
 70
     0
  9
$USERI2
 70
     0
  9
$USERI3
 70
     0
  9
$USERI4
 70
     0
  9
$USERI5
 70
     0
  9
$USERR1
 40
0.0
  9
$USERR2
 40
0.0
  9
$USERR3
 40
0.0
  9
$USERR4
 40
0.0
  9
$USERR5
 40
0.0
  9
$WORLDVIEW
 70
     1
  9
$SHADEDGE
 70
     3
  9
$SHADEDIF
 70
    70
  9
$TILEMODE
 70
     1
  9
$MAXACTVP
 70
    64
  9
$PINSBASE
 10
0.0
 20
0.0
 30
0.0
  9
$PLIMCHECK
 70
     0
  9
$PEXTMIN
 10
1.000000E+20
 20
1.000000E+20
 30
1.000000E+20
  9
$PEXTMAX
 10
-1.000000E+20
 20
-1.000000E+20
 30
-1.000000E+20
  9
$PLIMMIN
 10
53.980556
 20
23.548611
  9
$PLIMMAX
 10
351.019444
 20
233.451389
  9
$UNITMODE
 70
     0
  9
$VISRETAIN
 70
     1
  9
$PLINEGEN
 70
     0
  9
$PSLTSCALE
 70
     0
  9
$TREEDEPTH
 70
  3020
  9
$CMLSTYLE
  2
Standard
  9
$CMLJUST
 70
     0
  9
$CMLSCALE
 40
20.0
  9
$PROXYGRAPHICS
 70
     1
  9
$MEASUREMENT
 70
     1
  9
$CELWEIGHT
370
    -1
  9
$ENDCAPS
280
     0
  9
$JOINSTYLE
280
     0
  9
$LWDISPLAY
290
     0
  9
$INSUNITS
 70
     4
  9
$HYPERLINKBASE
  1

  9
$STYLESHEET
  1

  9
$XEDIT
290
     1
  9
$CEPSNTYPE
380
     0
  9
$PSTYLEMODE
290
     1
  9
$FINGERPRINTGUID
  2
{EC6BB858-51AA-46EC-B484-6C9CC7AB3E2E}
  9
$VERSIONGUID
  2
{FAEB1C32-E019-11D5-929B-00C0DF256EC4}
  9
$EXTNAMES
290
     1
  9
$PSVPSCALE
 40
0.0
  9
$OLESTARTUP
290
     0
  9
$SORTENTS
280
   127
  9
$INDEXCTL
280
     0
  9
$HIDETEXT
280
     1
  9
$XCLIPFRAME
280
     0
  9
$HALOGAP
280
     0
  9
$OBSCOLOR
 70
   257
  9
$OBSLTYPE
280
     0
  9
$INTERSECTIONDISPLAY
280
     0
  9
$INTERSECTIONCOLOR
 70
   257
  9
$DIMASSOC
280
     2
  9
$PROJECTNAME
  1

  9
$CAMERADISPLAY
290
     0
  9
$LENSLENGTH
 40
50.0
  9
$CAMERAHEIGHT
 40
0.0
  9
$STEPSPERSEC
 40
2.0
  9
$STEPSIZE
 40
6.0
  9
$3DDWFPREC
 40
2.0
  9
$PSOLWIDTH
 40
5.0
  9
$PSOLHEIGHT
 40
80.0
  9
$LOFTANG1
 40
1.570796
  9
$LOFTANG2
 40
1.570796
  9
$LOFTMAG1
 40
0.0
  9
$LOFTMAG2
 40
0.0
  9
$LOFTPARAM
 70
     7
  9
$LOFTNORMALS
280
     1
  9
$LATITUDE
 40
37.795
  9
$LONGITUDE
 40
-122.394
  9
$NORTHDIRECTION
 40
0.0
  9
$TIMEZONE
 70
 -8000
  9
$LIGHTGLYPHDISPLAY
280
     1
  9
$TILEMODELIGHTSYNCH
280
     1
  9
$SOLIDHIST
280
     1
  9
$SHOWHIST
280
     1
  9
$DWFFRAME
280
     2
  9
$DGNFRAME
280
     2
  9
$REALWORLDSCALE
290
     1
  9
$INTERFERECOLOR
 62
   256
  9
$CSHADOW
280
     0
  9
$SHADOWPLANELOCATION
 40
0.0
  0
ENDSEC
  0
SECTION
  2
CLASSES
  0
CLASS
  1
ACDBDICTIONARYWDFLT
  2
AcDbDictionaryWithDefault
  3
ObjectDBX Classes
 90
        0
 91
       11
280
     0
281
     0
  0
CLASS
  1
VISUALSTYLE
  2
AcDbVisualStyle
  3
ObjectDBX Classes
 90
     4095
 91
        9
280
     0
281
     0
  0
CLASS
  1
TABLESTYLE
  2
AcDbTableStyle
  3
ObjectDBX Classes
 90
     4095
 91
        7
280
     0
281
     0
  0
CLASS
  1
DICTIONARYVAR
  2
AcDbDictionaryVar
  3
ObjectDBX Classes
 90
        0
 91
        7
280
     0
281
     0
  0
CLASS
  1
SCALE
  2
AcDbScale
  3
ObjectDBX Classes
 90
     1153
 91
       10
280
     0
281
     0
  0
CLASS
  1
CELLSTYLEMAP
  2
AcDbCellStyleMap
  3
ObjectDBX Classes
 90
     1152
 91
        6
280
     0
281
     0
  0
CLASS
  1
RASTERVARIABLES
  2
AcDbRasterVariables
  3
ISM
 90
        0
 91
        6
280
     0
281
     0
  0
CLASS
  1
MATERIAL
  2
AcDbMaterial
  3
ObjectDBX Classes
 90
     1153
 91
       10
280
     0
281
     0
  0
CLASS
  1
DIMASSOC
  2
AcDbDimAssoc
  3
"AcDbDimAssoc|Product Desc:     AcDim ARX App For Dimension|Company:          Autodesk, Inc.|WEB Address:      www.autodesk.com"
 90
        0
 91
        6
280
     0
281
     0
  0
CLASS
  1
McDbContainer2
  2
McDbContainer2
  3
NanoSPDS
 90
      893
 91
        4
280
     0
281
     0
  0
CLASS
  1
SORTENTSTABLE
  2
AcDbSortentsTable
  3
ObjectDBX Classes
 90
        0
 91
        4
280
     0
281
     0
  0
CLASS
  1
McDbMarker
  2
McDbMarker
  3
NanoSPDS
 90
      893
 91
        4
280
     0
281
     1
  0
CLASS
  1
PLOTSETTINGS
  2
AcDbPlotSettings
  3
ObjectDBX Classes
 90
        0
 91
        4
280
     0
281
     0
  0
CLASS
  1
LAYOUTPRINTCONFIG
  2
CAcLayoutPrintConfig
  3
"CSD_APP"
 90
     4095
 91
        4
280
     0
281
     1
  0
ENDSEC
  0
SECTION
  2
TABLES
  0
TABLE
  2
VPORT
  5
8
330
0
100
AcDbSymbolTable
 70
     1
  0
VPORT
  5
29
330
8
100
AcDbSymbolTableRecord
100
AcDbViewportTableRecord
  2
*Active
 70
     0
 10
0.0
 20
0.0
 11
1.0
 21
1.0
 12
0.0
 22
0.0
 13
0.0
 23
0.0
 14
10.0
 24
10.0
 15
10.0
 25
10.0
 16
0.0
 26
0.0
 36
1.0
 17
87.558844
 27
52.449704
 37
0.0
 40
85.042599
 41
1.923358
 42
50.0
 43
0.0
 44
0.0
 50
0.0
 51
0.0
 71
    16
 72
  1000
 73
     1
 74
     3
 75
     0
 76
     0
 77
     0
 78
     0
281
     0
 65
     1
110
0.0
120
0.0
130
0.0
111
1.0
121
0.0
131
0.0
112
0.0
122
1.0
132
0.0
 79
     0
146
0.0
 60
    11
 61
     5
292
     1
282
     1
141
0.0
142
0.0
 63
   256
  0
ENDTAB
  0
TABLE
  2
LTYPE
  5
5
330
0
100
AcDbSymbolTable
 70
     1
  0
LTYPE
  5
14
330
5
100
AcDbSymbolTableRecord
100
AcDbLinetypeTableRecord
  2
ByBlock
 70
     0
  3

 72
    65
 73
     0
 40
0.0
  0
LTYPE
  5
15
330
5
100
AcDbSymbolTableRecord
100
AcDbLinetypeTableRecord
  2
ByLayer
 70
     0
  3

 72
    65
 73
     0
 40
0.0
  0
LTYPE
  5
16
330
5
100
AcDbSymbolTableRecord
100
AcDbLinetypeTableRecord
  2
Continuous
 70
     0
  3
Solid line
 72
    65
 73
     0
 40
0.0
  0
ENDTAB
  0
TABLE
  2
LAYER
  5
2
102
{ACAD_XDICTIONARY
360
7E
102
}
330
0
100
AcDbSymbolTable
 70
     4
  0
LAYER
  5
10
330
2
100
AcDbSymbolTableRecord
100
AcDbLayerTableRecord
  2
0
 70
     0
 62
     7
  6
Continuous
370
    -3
390
F
347
75
  0
LAYER
  5
82
330
2
100
AcDbSymbolTableRecord
100
AcDbLayerTableRecord
  2
temp
 70
     0
 62
     1
  6
Continuous
370
    -3
390
F
347
75
1001
AcAecLayerStandard
1000

1000

  0
LAYER
  5
9B
330
2
100
AcDbSymbolTableRecord
100
AcDbLayerTableRecord
  2
Defpoints
 70
     0
 62
     7
  6
Continuous
290
     0
370
    -3
390
F
347
75
  0
LAYER
  5
196
330
2
100
AcDbSymbolTableRecord
100
AcDbLayerTableRecord
  2
DIMENSION
 70
     0
 62
     3
  6
Continuous
370
    25
390
F
347
75
  0
ENDTAB
  0
TABLE
  2
STYLE
  5
3
330
0
100
AcDbSymbolTable
 70
     1
  0
STYLE
  5
11
330
3
100
AcDbSymbolTableRecord
100
AcDbTextStyleTableRecord
  2
Standard
 70
     0
 40
0.0
 41
1.0
 50
0.0
 71
     0
 42
2.5
  3
txt
  4

  0
ENDTAB
  0
TABLE
  2
VIEW
  5
6
330
0
100
AcDbSymbolTable
 70
     0
  0
ENDTAB
  0
TABLE
  2
UCS
  5
7
330
0
100
AcDbSymbolTable
 70
     0
  0
ENDTAB
  0
TABLE
  2
APPID
  5
9
330
0
100
AcDbSymbolTable
 70
    10
  0
APPID
  5
12
330
9
100
AcDbSymbolTableRecord
100
AcDbRegAppTableRecord
  2
ACAD
 70
     0
  0
APPID
  5
83
330
9
100
AcDbSymbolTableRecord
100
AcDbRegAppTableRecord
  2
AcAecLayerStandard
 70
     0
  0
APPID
  5
D3
330
9
100
AcDbSymbolTableRecord
100
AcDbRegAppTableRecord
  2
ACAD_DSTYLE_DIMRADIAL_EXTENSION
 70
     0
  0
APPID
  5
12D
330
9
100
AcDbSymbolTableRecord
100
AcDbRegAppTableRecord
  2
MCS_DIM1
 70
     0
  0
APPID
  5
12E
330
9
100
AcDbSymbolTableRecord
100
AcDbRegAppTableRecord
  2
McsXdata5
 70
     0
  0
APPID
  5
131
330
9
100
AcDbSymbolTableRecord
100
AcDbRegAppTableRecord
  2
MCS_DOCUMENT_ID
 70
     0
  0
APPID
  5
149
330
9
100
AcDbSymbolTableRecord
100
AcDbRegAppTableRecord
  2
McSubentIdentification
 70
     0
  0
APPID
  5
14A
330
9
100
AcDbSymbolTableRecord
100
AcDbRegAppTableRecord
  2
MC_VERSION_DATA
 70
     0
  0
APPID
  5
23A
330
9
100
AcDbSymbolTableRecord
100
AcDbRegAppTableRecord
  2
ACAD_PSEXT
 70
     0
  0
APPID
  5
247
330
9
100
AcDbSymbolTableRecord
100
AcDbRegAppTableRecord
  2
MCS_PARAMS_DATA
 70
     0
  0
ENDTAB
  0
TABLE
  2
DIMSTYLE
  5
A
330
0
100
AcDbSymbolTable
 70
     1
100
AcDbDimStyleTable
  0
DIMSTYLE
105
27
102
{ACAD_REACTORS
330
249
102
}
330
A
100
AcDbSymbolTableRecord
100
AcDbDimStyleTableRecord
  2
ISO-25
 70
     0
 41
2.5
 42
0.625
 43
3.75
 44
1.25
 73
     0
 74
     0
 77
     1
 78
     8
140
2.5
141
2.5
143
0.03937
147
0.625
171
     3
172
     1
178
     0
271
     2
272
     2
274
     3
278
    44
283
     0
284
     8
340
11
  0
ENDTAB
  0
TABLE
  2
BLOCK_RECORD
  5
1
330
0
100
AcDbSymbolTable
 70
    17
  0
BLOCK_RECORD
  5
1F
102
{ACAD_XDICTIONARY
360
1DA
102
}
330
1
100
AcDbSymbolTableRecord
100
AcDbBlockTableRecord
  2
*Model_Space
340
22
 70
     0
280
     1
281
     0
  0
BLOCK_RECORD
  5
1B
330
1
100
AcDbSymbolTableRecord
100
AcDbBlockTableRecord
  2
*Paper_Space
340
1E
 70
     0
280
     1
281
     0
  0
BLOCK_RECORD
  5
9F
330
1
100
AcDbSymbolTableRecord
100
AcDbBlockTableRecord
  2
*D0
340
0
 70
     0
280
     1
281
     0
  0
BLOCK_RECORD
  5
B4
330
1
100
AcDbSymbolTableRecord
100
AcDbBlockTableRecord
  2
*D1
340
0
 70
     0
280
     1
281
     0
  0
BLOCK_RECORD
  5
D7
330
1
100
AcDbSymbolTableRecord
100
AcDbBlockTableRecord
  2
*D2
340
0
 70
     0
280
     1
281
     0
  0
BLOCK_RECORD
  5
E5
330
1
100
AcDbSymbolTableRecord
100
AcDbBlockTableRecord
  2
*D3
340
0
 70
     0
280
     1
281
     0
  0
BLOCK_RECORD
  5
F2
330
1
100
AcDbSymbolTableRecord
100
AcDbBlockTableRecord
  2
*D4
340
0
 70
     0
280
     1
281
     0
  0
BLOCK_RECORD
  5
101
330
1
100
AcDbSymbolTableRecord
100
AcDbBlockTableRecord
  2
*D5
340
0
 70
     0
280
     1
281
     0
  0
BLOCK_RECORD
  5
10F
330
1
100
AcDbSymbolTableRecord
100
AcDbBlockTableRecord
  2
*D6
340
0
 70
     0
280
     1
281
     0
  0
BLOCK_RECORD
  5
11D
330
1
100
AcDbSymbolTableRecord
100
AcDbBlockTableRecord
  2
*D7
340
0
 70
     0
280
     1
281
     0
  0
BLOCK_RECORD
  5
18A
330
1
100
AcDbSymbolTableRecord
100
AcDbBlockTableRecord
  2
*D8
340
0
 70
     0
280
     1
281
     0
  0
BLOCK_RECORD
  5
193
330
1
100
AcDbSymbolTableRecord
100
AcDbBlockTableRecord
  2
_NONE
340
0
 70
     0
280
     1
281
     0
  0
BLOCK_RECORD
  5
19A
330
1
100
AcDbSymbolTableRecord
100
AcDbBlockTableRecord
  2
*D10
340
0
 70
     0
280
     1
281
     0
  0
BLOCK_RECORD
  5
1A7
330
1
100
AcDbSymbolTableRecord
100
AcDbBlockTableRecord
  2
*D11
340
0
 70
     0
280
     1
281
     0
  0
BLOCK_RECORD
  5
1B4
330
1
100
AcDbSymbolTableRecord
100
AcDbBlockTableRecord
  2
*D12
340
0
 70
     0
280
     1
281
     0
  0
BLOCK_RECORD
  5
21C
330
1
100
AcDbSymbolTableRecord
100
AcDbBlockTableRecord
  2
*D13
340
0
 70
     0
280
     1
281
     0
  0
BLOCK_RECORD
  5
22B
330
1
100
AcDbSymbolTableRecord
100
AcDbBlockTableRecord
  2
*D14
340
0
 70
     0
280
     1
281
     0
  0
BLOCK_RECORD
  5
24A
330
1
100
AcDbSymbolTableRecord
100
AcDbBlockTableRecord
  2
*D15
340
0
 70
     0
280
     1
281
     0
  0
BLOCK_RECORD
  5
261
330
1
100
AcDbSymbolTableRecord
100
AcDbBlockTableRecord
  2
*D16
340
0
 70
     0
280
     1
281
     0
  0
ENDTAB
  0
ENDSEC
  0
SECTION
  2
BLOCKS
  0
BLOCK
  5
20
330
1F
100
AcDbEntity
  8
0
100
AcDbBlockBegin
  2
*Model_Space
 70
     0
 10
0.0
 20
0.0
 30
0.0
  3
*Model_Space
  1

  0
ENDBLK
  5
21
330
1F
100
AcDbEntity
  8
0
100
AcDbBlockEnd
  0
BLOCK
  5
1C
330
1B
100
AcDbEntity
 67
     1
  8
0
100
AcDbBlockBegin
  2
*Paper_Space
 70
     0
 10
0.0
 20
0.0
 30
0.0
  3
*Paper_Space
  1

  0
ENDBLK
  5
1D
330
1B
100
AcDbEntity
 67
     1
  8
0
100
AcDbBlockEnd
  0
BLOCK
  5
AB
330
9F
100
AcDbEntity
  8
0
100
AcDbBlockBegin
  2
*D0
 70
     1
 10
0.0
 20
0.0
 30
0.0
  3
*D0
  1

  0
LINE
  5
A0
330
9F
100
AcDbEntity
  8
temp
 62
     0
370
    -2
100
AcDbLine
 10
103.618332
 20
176.063676
 30
0.0
 11
116.474363
 21
180.40393
 31
0.0
  0
LINE
  5
A1
330
9F
100
AcDbEntity
  8
temp
 62
     0
370
    -2
100
AcDbLine
 10
105.504923
 20
170.475507
 30
0.0
 11
118.360954
 21
174.815762
 31
0.0
  0
LINE
  5
A2
330
9F
100
AcDbEntity
  8
temp
 62
     0
370
    -2
100
AcDbLine
 10
117.176626
 20
174.415928
 30
0.0
 11
120.908415
 21
163.362201
 31
0.0
  0
LINE
  5
A3
330
9F
100
AcDbEntity
  8
temp
 62
     0
370
    -2
100
AcDbLine
 10
115.290035
 20
180.004096
 30
0.0
 11
117.176626
 21
174.415928
 31
0.0
  0
LINE
  5
A4
330
9F
100
AcDbEntity
  8
temp
 62
     0
370
    -2
100
AcDbLine
 10
115.290035
 20
180.004096
 30
0.0
 11
113.690698
 21
184.741407
 31
0.0
  0
SOLID
  5
A5
330
9F
100
AcDbEntity
  8
temp
 62
     0
100
AcDbTrace
 10
114.095591
 20
182.239473
 30
0.0
 11
114.885142
 21
182.50603
 31
0.0
 12
115.290035
 22
180.004096
 32
0.0
 13
115.290035
 23
180.004096
 33
0.0
  0
SOLID
  5
A6
330
9F
100
AcDbEntity
  8
temp
 62
     0
100
AcDbTrace
 10
118.371071
 20
172.18055
 30
0.0
 11
117.581519
 21
171.913994
 31
0.0
 12
117.176626
 22
174.415928
 32
0.0
 13
117.176626
 23
174.415928
 33
0.0
  0
MTEXT
  5
A7
330
9F
100
AcDbEntity
  8
temp
 62
     0
100
AcDbMText
 10
121.816069
 20
167.186799
 30
0.0
 40
2.5
 41
0.0
 46
0.0
 71
     5
 72
     1
  1
5,9
 11
0.3198675657065812
 21
-0.947462263316564
 31
0.0
 73
     1
 44
1.0
  0
POINT
  5
A8
330
9F
100
AcDbEntity
  8
Defpoints
 62
     0
100
AcDbPoint
 10
103.026168
 20
175.863758
 30
0.0
  0
POINT
  5
A9
330
9F
100
AcDbEntity
  8
Defpoints
 62
     0
100
AcDbPoint
 10
104.912759
 20
170.27559
 30
0.0
  0
POINT
  5
AA
330
9F
100
AcDbEntity
  8
Defpoints
 62
     0
100
AcDbPoint
 10
117.176626
 20
174.415928
 30
0.0
  0
ENDBLK
  5
AC
330
9F
100
AcDbEntity
  8
0
100
AcDbBlockEnd
  0
BLOCK
  5
BE
330
B4
100
AcDbEntity
  8
0
100
AcDbBlockBegin
  2
*D1
 70
     1
 10
0.0
 20
0.0
 30
0.0
  3
*D1
  1

  0
LINE
  5
B5
330
B4
100
AcDbEntity
  8
temp
 62
     0
370
    -2
100
AcDbLine
 10
235.905201
 20
197.863758
 30
0.0
 11
244.328195
 21
197.863758
 31
0.0
  0
LINE
  5
B6
330
B4
100
AcDbEntity
  8
temp
 62
     0
370
    -2
100
AcDbLine
 10
235.905201
 20
181.863758
 30
0.0
 11
244.328195
 21
181.863758
 31
0.0
  0
LINE
  5
B7
330
B4
100
AcDbEntity
  8
temp
 62
     0
370
    -2
100
AcDbLine
 10
243.078195
 20
195.363758
 30
0.0
 11
243.078195
 21
184.363758
 31
0.0
  0
SOLID
  5
B8
330
B4
100
AcDbEntity
  8
temp
 62
     0
100
AcDbTrace
 10
243.494861
 20
195.363758
 30
0.0
 11
242.661528
 21
195.363758
 31
0.0
 12
243.078195
 22
197.863758
 32
0.0
 13
243.078195
 23
197.863758
 33
0.0
  0
SOLID
  5
B9
330
B4
100
AcDbEntity
  8
temp
 62
     0
100
AcDbTrace
 10
242.661528
 20
184.363758
 30
0.0
 11
243.494861
 21
184.363758
 31
0.0
 12
243.078195
 22
181.863758
 32
0.0
 13
243.078195
 23
181.863758
 33
0.0
  0
MTEXT
  5
BA
330
B4
100
AcDbEntity
  8
temp
 62
     0
100
AcDbMText
 10
241.203195
 20
189.863758
 30
0.0
 40
2.5
 41
0.0
 46
0.0
 71
     5
 72
     1
  1
16
 11
0.0
 21
1.0
 31
0.0
 73
     1
 44
1.0
  0
POINT
  5
BB
330
B4
100
AcDbEntity
  8
Defpoints
 62
     0
100
AcDbPoint
 10
235.280201
 20
197.863758
 30
0.0
  0
POINT
  5
BC
330
B4
100
AcDbEntity
  8
Defpoints
 62
     0
100
AcDbPoint
 10
235.280201
 20
181.863758
 30
0.0
  0
POINT
  5
BD
330
B4
100
AcDbEntity
  8
Defpoints
 62
     0
100
AcDbPoint
 10
243.078195
 20
181.863758
 30
0.0
  0
ENDBLK
  5
BF
330
B4
100
AcDbEntity
  8
0
100
AcDbBlockEnd
  0
BLOCK
  5
E0
330
D7
100
AcDbEntity
  8
0
100
AcDbBlockBegin
  2
*D2
 70
     1
 10
0.0
 20
0.0
 30
0.0
  3
*D2
  1

  0
LINE
  5
D8
330
D7
100
AcDbEntity
  8
0
 62
     0
370
    -2
100
AcDbLine
 10
139.924874
 20
24.505915
 30
0.0
 11
129.666888
 21
37.254035
 31
0.0
  0
LINE
  5
D9
330
D7
100
AcDbEntity
  8
0
 62
     0
370
    -2
100
AcDbLine
 10
145.567059
 20
17.494085
 30
0.0
 11
147.134333
 21
15.546355
 31
0.0
  0
MTEXT
  5
DA
330
D7
100
AcDbEntity
  8
0
 62
     0
100
AcDbMText
 10
132.825566
 20
36.319449
 30
0.0
 40
2.5
 41
0.0
 46
0.0
 71
     5
 72
     1
  1
%%c4
 11
0.626909404388681
 21
-0.7790921631546741
 31
0.0
 73
     1
 44
1.0
  0
LINE
  5
DB
330
D7
100
AcDbEntity
  8
0
 62
     0
370
    -2
100
AcDbLine
 10
143.999786
 20
19.441816
 30
0.0
 11
141.492148
 21
22.558184
 31
0.0
  0
SOLID
  5
DC
330
D7
100
AcDbEntity
  8
0
 62
     0
100
AcDbTrace
 10
145.891681
 20
17.755298
 30
0.0
 11
145.242437
 21
17.232873
 31
0.0
 12
143.999786
 22
19.441816
 32
0.0
 13
143.999786
 23
19.441816
 33
0.0
  0
SOLID
  5
DD
330
D7
100
AcDbEntity
  8
0
 62
     0
100
AcDbTrace
 10
139.600253
 20
24.244702
 30
0.0
 11
140.249496
 21
24.767127
 31
0.0
 12
141.492148
 22
22.558184
 32
0.0
 13
141.492148
 23
22.558184
 33
0.0
  0
POINT
  5
DE
330
D7
100
AcDbEntity
  8
Defpoints
 62
     0
100
AcDbPoint
 10
141.492148
 20
22.558184
 30
0.0
  0
POINT
  5
DF
330
D7
100
AcDbEntity
  8
Defpoints
 62
     0
100
AcDbPoint
 10
143.999786
 20
19.441816
 30
0.0
  0
ENDBLK
  5
E1
330
D7
100
AcDbEntity
  8
0
100
AcDbBlockEnd
  0
BLOCK
  5
ED
330
E5
100
AcDbEntity
  8
0
100
AcDbBlockBegin
  2
*D3
 70
     1
 10
0.0
 20
0.0
 30
0.0
  3
*D3
  1

  0
LINE
  5
E6
330
E5
100
AcDbEntity
  8
0
 62
     0
370
    -2
100
AcDbLine
 10
134.297118
 20
20.068895
 30
0.0
 11
126.428092
 21
19.201689
 31
0.0
  0
MTEXT
  5
E7
330
E5
100
AcDbEntity
  8
0
 62
     0
100
AcDbMText
 10
128.914737
 20
21.362081
 30
0.0
 40
2.5
 41
0.0
 46
0.0
 71
     5
 72
     1
  1
R6
 11
0.9939821896594671
 21
0.1095418031610371
 31
0.0
 73
     1
 44
1.0
  0
LINE
  5
E8
330
E5
100
AcDbEntity
  8
0
 62
     0
370
    -2
100
AcDbLine
 10
142.745967
 20
21.0
 30
0.0
 11
136.782074
 21
20.342749
 31
0.0
  0
SOLID
  5
E9
330
E5
100
AcDbEntity
  8
0
 62
     0
100
AcDbTrace
 10
134.34276
 20
19.654735
 30
0.0
 11
134.251476
 21
20.483054
 31
0.0
 12
136.782074
 22
20.342749
 32
0.0
 13
136.782074
 23
20.342749
 33
0.0
  0
ARC
  5
EA
330
E5
100
AcDbEntity
  8
0
 62
     0
370
    -2
100
AcDbCircle
 10
142.745967
 20
21.0
 30
0.0
 40
6.0
100
AcDbArc
 50
174.33059
 51
264.028988
  0
POINT
  5
EB
330
E5
100
AcDbEntity
  8
Defpoints
 62
     0
100
AcDbPoint
 10
136.782074
 20
20.342749
 30
0.0
  0
POINT
  5
EC
330
E5
100
AcDbEntity
  8
Defpoints
 62
     0
100
AcDbPoint
 10
142.745967
 20
21.0
 30
0.0
  0
ENDBLK
  5
EE
330
E5
100
AcDbEntity
  8
0
100
AcDbBlockEnd
  0
BLOCK
  5
FC
330
F2
100
AcDbEntity
  8
0
100
AcDbBlockBegin
  2
*D4
 70
     1
 10
0.0
 20
0.0
 30
0.0
  3
*D4
  1

  0
LINE
  5
F3
330
F2
100
AcDbEntity
  8
0
 62
     0
370
    -2
100
AcDbLine
 10
136.587947
 20
26.859078
 30
0.0
 11
124.252643
 21
38.595561
 31
0.0
  0
LINE
  5
F4
330
F2
100
AcDbEntity
  8
0
 62
     0
370
    -2
100
AcDbLine
 10
148.903987
 20
15.140922
 30
0.0
 11
150.715169
 21
13.417664
 31
0.0
  0
MTEXT
  5
F5
330
F2
100
AcDbEntity
  8
0
 62
     0
100
AcDbMText
 10
128.110928
 20
37.512666
 30
0.0
 40
2.5
 41
0.0
 46
0.0
 71
     5
 72
     1
  1
%%c12
 11
0.7244729452563146
 21
-0.6893032363130475
 31
0.0
 73
     1
 44
1.0
  0
LINE
  5
F6
330
F2
100
AcDbEntity
  8
0
 62
     0
370
    -2
100
AcDbLine
 10
147.092804
 20
16.864181
 30
0.0
 11
138.399129
 21
25.135819
 31
0.0
  0
SOLID
  5
F7
330
F2
100
AcDbEntity
  8
0
 62
     0
100
AcDbTrace
 10
149.191196
 20
15.442786
 30
0.0
 11
148.616777
 21
14.839059
 31
0.0
 12
147.092804
 22
16.864181
 32
0.0
 13
147.092804
 23
16.864181
 33
0.0
  0
SOLID
  5
F8
330
F2
100
AcDbEntity
  8
0
 62
     0
100
AcDbTrace
 10
136.300737
 20
26.557214
 30
0.0
 11
136.875156
 21
27.160941
 31
0.0
 12
138.399129
 22
25.135819
 32
0.0
 13
138.399129
 23
25.135819
 33
0.0
  0
ARC
  5
F9
330
F2
100
AcDbEntity
  8
0
 62
     0
370
    -2
100
AcDbCircle
 10
142.745967
 20
21.0
 30
0.0
 40
5.999999999999994
100
AcDbArc
 50
95.971012
 51
148.383334
  0
POINT
  5
FA
330
F2
100
AcDbEntity
  8
Defpoints
 62
     0
100
AcDbPoint
 10
138.399129
 20
25.135819
 30
0.0
  0
POINT
  5
FB
330
F2
100
AcDbEntity
  8
Defpoints
 62
     0
100
AcDbPoint
 10
147.092804
 20
16.864181
 30
0.0
  0
ENDBLK
  5
FD
330
F2
100
AcDbEntity
  8
0
100
AcDbBlockEnd
  0
BLOCK
  5
10A
330
101
100
AcDbEntity
  8
0
100
AcDbBlockBegin
  2
*D5
 70
     1
 10
0.0
 20
0.0
 30
0.0
  3
*D5
  1

  0
LINE
  5
102
330
101
100
AcDbEntity
  8
0
 62
     0
370
    -2
100
AcDbLine
 10
139.711099
 20
17.677414
 30
0.0
 11
129.538227
 21
6.54011
 31
0.0
  0
LINE
  5
103
330
101
100
AcDbEntity
  8
0
 62
     0
370
    -2
100
AcDbLine
 10
145.780834
 20
24.322586
 30
0.0
 11
147.466872
 21
26.168467
 31
0.0
  0
MTEXT
  5
104
330
101
100
AcDbEntity
  8
0
 62
     0
100
AcDbMText
 10
129.980357
 20
9.804343
 30
0.0
 40
2.5
 41
0.0
 46
0.0
 71
     5
 72
     1
  1
%%c4
 11
0.6744150350189967
 21
0.7383524636244707
 31
0.0
 73
     1
 44
1.0
  0
LINE
  5
105
330
101
100
AcDbEntity
  8
0
 62
     0
370
    -2
100
AcDbLine
 10
144.094797
 20
22.476705
 30
0.0
 11
141.397137
 21
19.523295
 31
0.0
  0
SOLID
  5
106
330
101
100
AcDbEntity
  8
0
 62
     0
100
AcDbTrace
 10
145.473187
 20
24.603592
 30
0.0
 11
146.088481
 21
24.04158
 31
0.0
 12
144.094797
 22
22.476705
 32
0.0
 13
144.094797
 23
22.476705
 33
0.0
  0
SOLID
  5
107
330
101
100
AcDbEntity
  8
0
 62
     0
100
AcDbTrace
 10
140.018746
 20
17.396408
 30
0.0
 11
139.403452
 21
17.95842
 31
0.0
 12
141.397137
 22
19.523295
 32
0.0
 13
141.397137
 23
19.523295
 33
0.0
  0
POINT
  5
108
330
101
100
AcDbEntity
  8
Defpoints
 62
     0
100
AcDbPoint
 10
141.397137
 20
19.523295
 30
0.0
  0
POINT
  5
109
330
101
100
AcDbEntity
  8
Defpoints
 62
     0
100
AcDbPoint
 10
144.094797
 20
22.476705
 30
0.0
  0
ENDBLK
  5
10B
330
101
100
AcDbEntity
  8
0
100
AcDbBlockEnd
  0
BLOCK
  5
118
330
10F
100
AcDbEntity
  8
0
100
AcDbBlockBegin
  2
*D6
 70
     1
 10
0.0
 20
0.0
 30
0.0
  3
*D6
  1

  0
LINE
  5
110
330
10F
100
AcDbEntity
  8
0
 62
     0
370
    -2
100
AcDbLine
 10
25.013785
 20
40.807478
 30
0.0
 11
33.630509
 21
56.798756
 31
0.0
  0
LINE
  5
111
330
10F
100
AcDbEntity
  8
0
 62
     0
370
    -2
100
AcDbLine
 10
3.667703
 20
1.192522
 30
0.0
 11
2.48181
 21
-1.008309
 31
0.0
  0
MTEXT
  5
112
330
10F
100
AcDbEntity
  8
0
 62
     0
100
AcDbMText
 10
30.201046
 20
54.38693
 30
0.0
 40
2.5
 41
0.0
 46
0.0
 71
     5
 72
     1
  1
%%c40
 11
0.474357387391255
 21
0.8803323628194883
 31
0.0
 73
     1
 44
1.0
  0
LINE
  5
113
330
10F
100
AcDbEntity
  8
0
 62
     0
370
    -2
100
AcDbLine
 10
4.853597
 20
3.393353
 30
0.0
 11
23.827892
 21
38.606647
 31
0.0
  0
SOLID
  5
114
330
10F
100
AcDbEntity
  8
0
 62
     0
100
AcDbTrace
 10
4.034508
 20
0.994873
 30
0.0
 11
3.300898
 21
1.390171
 31
0.0
 12
4.853597
 22
3.393353
 32
0.0
 13
4.853597
 23
3.393353
 33
0.0
  0
SOLID
  5
115
330
10F
100
AcDbEntity
  8
0
 62
     0
100
AcDbTrace
 10
24.64698
 20
41.005127
 30
0.0
 11
25.380591
 21
40.609829
 31
0.0
 12
23.827892
 22
38.606647
 32
0.0
 13
23.827892
 23
38.606647
 33
0.0
  0
POINT
  5
116
330
10F
100
AcDbEntity
  8
Defpoints
 62
     0
100
AcDbPoint
 10
23.827892
 20
38.606647
 30
0.0
  0
POINT
  5
117
330
10F
100
AcDbEntity
  8
Defpoints
 62
     0
100
AcDbPoint
 10
4.853597
 20
3.393353
 30
0.0
  0
ENDBLK
  5
119
330
10F
100
AcDbEntity
  8
0
100
AcDbBlockEnd
  0
BLOCK
  5
126
330
11D
100
AcDbEntity
  8
0
100
AcDbBlockBegin
  2
*D7
 70
     1
 10
0.0
 20
0.0
 30
0.0
  3
*D7
  1

  0
LINE
  5
11E
330
11D
100
AcDbEntity
  8
0
 62
     0
370
    -2
100
AcDbLine
 10
27.028293
 20
23.829581
 30
0.0
 11
37.322396
 21
25.422814
 31
0.0
  0
LINE
  5
11F
330
11D
100
AcDbEntity
  8
0
 62
     0
370
    -2
100
AcDbLine
 10
-9.53636
 20
18.170419
 30
0.0
 11
-12.006945
 21
17.788043
 31
0.0
  0
MTEXT
  5
120
330
11D
100
AcDbEntity
  8
0
 62
     0
100
AcDbMText
 10
33.123855
 20
26.670324
 30
0.0
 40
2.5
 41
0.0
 46
0.0
 71
     5
 72
     1
  1
%%c32
 11
0.9882338756156387
 21
0.1529503418946643
 31
0.0
 73
     1
 44
1.0
  0
LINE
  5
121
330
11D
100
AcDbEntity
  8
0
 62
     0
370
    -2
100
AcDbLine
 10
-7.065775
 20
18.552795
 30
0.0
 11
24.557709
 21
23.447205
 31
0.0
  0
SOLID
  5
122
330
11D
100
AcDbEntity
  8
0
 62
     0
100
AcDbTrace
 10
-9.472631
 20
17.758655
 30
0.0
 11
-9.600089
 21
18.582183
 31
0.0
 12
-7.065775
 22
18.552795
 32
0.0
 13
-7.065775
 23
18.552795
 33
0.0
  0
SOLID
  5
123
330
11D
100
AcDbEntity
  8
0
 62
     0
100
AcDbTrace
 10
26.964564
 20
24.241345
 30
0.0
 11
27.092023
 21
23.417817
 31
0.0
 12
24.557709
 22
23.447205
 32
0.0
 13
24.557709
 23
23.447205
 33
0.0
  0
POINT
  5
124
330
11D
100
AcDbEntity
  8
Defpoints
 62
     0
100
AcDbPoint
 10
24.557709
 20
23.447205
 30
0.0
  0
POINT
  5
125
330
11D
100
AcDbEntity
  8
Defpoints
 62
     0
100
AcDbPoint
 10
-7.065775
 20
18.552795
 30
0.0
  0
ENDBLK
  5
127
330
11D
100
AcDbEntity
  8
0
100
AcDbBlockEnd
  0
BLOCK
  5
191
330
18A
100
AcDbEntity
  8
0
100
AcDbBlockBegin
  2
*D8
 70
     1
 10
0.0
 20
0.0
 30
0.0
  3
*D8
  1

  0
LINE
  5
18B
330
18A
100
AcDbEntity
  8
DIMENSION
 62
     0
370
    -2
100
AcDbLine
 10
36.607307
 20
17.475895
 30
0.0
 11
27.099728
 21
18.678483
 31
0.0
  0
MTEXT
  5
18C
330
18A
100
AcDbEntity
  8
DIMENSION
 62
     0
100
AcDbMText
 10
33.328926
 20
19.780508
 30
0.0
 40
2.5
 41
0.0
 46
0.0
 71
     5
 72
     1
  1
R16
 11
0.9920952113429982
 21
-0.1254874162228714
 31
0.0
 73
     1
 44
1.0
  0
LINE
  5
18D
330
18A
100
AcDbEntity
  8
DIMENSION
 62
     0
370
    -2
100
AcDbLine
 10
8.745967
 20
21.0
 30
0.0
 11
24.61949
 21
18.992201
 31
0.0
  0
SOLID
  5
18E
330
18A
100
AcDbEntity
  8
DIMENSION
 62
     0
100
AcDbTrace
 10
27.152015
 20
19.091856
 30
0.0
 11
27.047442
 21
18.26511
 31
0.0
 12
24.61949
 22
18.992201
 32
0.0
 13
24.61949
 23
18.992201
 33
0.0
  0
POINT
  5
18F
330
18A
100
AcDbEntity
  8
Defpoints
 62
     0
100
AcDbPoint
 10
24.61949
 20
18.992201
 30
0.0
  0
POINT
  5
190
330
18A
100
AcDbEntity
  8
Defpoints
 62
     0
100
AcDbPoint
 10
8.745967
 20
21.0
 30
0.0
  0
ENDBLK
  5
192
330
18A
100
AcDbEntity
  8
0
100
AcDbBlockEnd
  0
BLOCK
  5
194
330
193
100
AcDbEntity
  8
0
100
AcDbBlockBegin
  2
_NONE
 70
     0
 10
0.0
 20
0.0
 30
0.0
  3
_NONE
  1

  0
ENDBLK
  5
195
330
193
100
AcDbEntity
  8
0
100
AcDbBlockEnd
  0
BLOCK
  5
1A1
330
19A
100
AcDbEntity
  8
0
100
AcDbBlockBegin
  2
*D10
 70
     1
 10
0.0
 20
0.0
 30
0.0
  3
*D10
  1

  0
LINE
  5
19B
330
19A
100
AcDbEntity
  8
DIMENSION
 62
     0
370
    -2
100
AcDbLine
 10
-37.021636
 20
85.128607
 30
0.0
 11
-43.503448
 21
91.610419
 31
0.0
  0
MTEXT
  5
19C
330
19A
100
AcDbEntity
  8
DIMENSION
 62
     0
100
AcDbMText
 10
-38.052834
 20
88.811455
 30
0.0
 40
2.5
 41
0.0
 46
0.0
 71
     5
 72
     1
  1
R10
 11
0.7071067811865476
 21
-0.7071067811865476
 31
0.0
 73
     1
 44
1.0
  0
LINE
  5
19D
330
19A
100
AcDbEntity
  8
DIMENSION
 62
     0
370
    -2
100
AcDbLine
 10
-52.342283
 20
100.449254
 30
0.0
 11
-45.271215
 21
93.378186
 31
0.0
  0
SOLID
  5
19E
330
19A
100
AcDbEntity
  8
DIMENSION
 62
     0
100
AcDbTrace
 10
-43.20882
 20
91.905047
 30
0.0
 11
-43.798076
 21
91.315791
 31
0.0
 12
-45.271215
 22
93.378186
 32
0.0
 13
-45.271215
 23
93.378186
 33
0.0
  0
POINT
  5
19F
330
19A
100
AcDbEntity
  8
Defpoints
 62
     0
100
AcDbPoint
 10
-45.271215
 20
93.378186
 30
0.0
  0
POINT
  5
1A0
330
19A
100
AcDbEntity
  8
Defpoints
 62
     0
100
AcDbPoint
 10
-52.342283
 20
100.449254
 30
0.0
  0
ENDBLK
  5
1A2
330
19A
100
AcDbEntity
  8
0
100
AcDbBlockEnd
  0
BLOCK
  5
1AE
330
1A7
100
AcDbEntity
  8
0
100
AcDbBlockBegin
  2
*D11
 70
     1
 10
0.0
 20
0.0
 30
0.0
  3
*D11
  1

  0
LINE
  5
1A8
330
1A7
100
AcDbEntity
  8
DIMENSION
 62
     0
370
    -2
100
AcDbLine
 10
8.173274
 20
52.909439
 30
0.0
 11
10.070957
 21
43.09115
 31
0.0
  0
MTEXT
  5
1A9
330
1A7
100
AcDbEntity
  8
DIMENSION
 62
     0
100
AcDbMText
 10
10.725834
 20
49.583396
 30
0.0
 40
2.5
 41
0.0
 46
0.0
 71
     5
 72
     1
  1
R20
 11
0.1897683228397209
 21
-0.9818288973373107
 31
0.0
 73
     1
 44
1.0
  0
LINE
  5
1AA
330
1A7
100
AcDbEntity
  8
DIMENSION
 62
     0
370
    -2
100
AcDbLine
 10
14.340744
 20
21.0
 30
0.0
 11
10.545378
 21
40.636578
 31
0.0
  0
SOLID
  5
1AB
330
1A7
100
AcDbEntity
  8
DIMENSION
 62
     0
100
AcDbTrace
 10
9.661862
 20
43.01208
 30
0.0
 11
10.480052
 21
43.17022
 31
0.0
 12
10.545378
 22
40.636578
 32
0.0
 13
10.545378
 23
40.636578
 33
0.0
  0
POINT
  5
1AC
330
1A7
100
AcDbEntity
  8
Defpoints
 62
     0
100
AcDbPoint
 10
10.545378
 20
40.636578
 30
0.0
  0
POINT
  5
1AD
330
1A7
100
AcDbEntity
  8
Defpoints
 62
     0
100
AcDbPoint
 10
14.340744
 20
21.0
 30
0.0
  0
ENDBLK
  5
1AF
330
1A7
100
AcDbEntity
  8
0
100
AcDbBlockEnd
  0
BLOCK
  5
1BD
330
1B4
100
AcDbEntity
  8
0
100
AcDbBlockBegin
  2
*D12
 70
     1
 10
0.0
 20
0.0
 30
0.0
  3
*D12
  1

  0
LINE
  5
1B5
330
1B4
100
AcDbEntity
  8
DIMENSION
 62
     0
370
    -2
100
AcDbLine
 10
-12.146087
 20
29.352969
 30
0.0
 11
29.63802
 21
12.647031
 31
0.0
  0
MTEXT
  5
1B6
330
1B4
100
AcDbEntity
  8
DIMENSION
 62
     0
100
AcDbMText
 10
-13.63213
 20
32.370282
 30
0.0
 40
2.5
 41
0.0
 46
0.0
 71
     5
 72
     1
  1
{\Q0;%%c}50
 11
0.9285357247501901
 21
-0.3712430576625497
 31
0.0
 73
     1
 44
1.0
  0
LINE
  5
1B7
330
1B4
100
AcDbEntity
  8
DIMENSION
 62
     0
370
    -2
100
AcDbLine
 10
31.95936
 20
11.718924
 30
0.0
 11
-14.467426
 21
30.281076
 31
0.0
  0
SOLID
  5
1B8
330
1B4
100
AcDbEntity
  8
DIMENSION
 62
     0
100
AcDbTrace
 10
29.483336
 20
12.260141
 30
0.0
 11
29.792705
 21
13.033921
 31
0.0
 12
31.95936
 22
11.718924
 32
0.0
 13
31.95936
 23
11.718924
 33
0.0
  0
SOLID
  5
1B9
330
1B4
100
AcDbEntity
  8
DIMENSION
 62
     0
100
AcDbTrace
 10
-11.991403
 20
29.739859
 30
0.0
 11
-12.300772
 21
28.966079
 31
0.0
 12
-14.467426
 22
30.281076
 32
0.0
 13
-14.467426
 23
30.281076
 33
0.0
  0
POINT
  5
1BA
330
1B4
100
AcDbEntity
  8
Defpoints
 62
     0
100
AcDbPoint
 10
-14.467426
 20
30.281076
 30
0.0
  0
POINT
  5
1BB
330
1B4
100
AcDbEntity
  8
Defpoints
 62
     0
100
AcDbPoint
 10
31.95936
 20
11.718924
 30
0.0
  0
ENDBLK
  5
1BE
330
1B4
100
AcDbEntity
  8
0
100
AcDbBlockEnd
  0
BLOCK
  5
223
330
21C
100
AcDbEntity
  8
0
100
AcDbBlockBegin
  2
*D13
 70
     1
 10
0.0
 20
0.0
 30
0.0
  3
*D13
  1

  0
LINE
  5
21D
330
21C
100
AcDbEntity
  8
DIMENSION
 62
     0
370
    -2
100
AcDbLine
 10
9.647433
 20
74.130832
 30
0.0
 11
16.889272
 21
70.932492
 31
0.0
  0
MTEXT
  5
21E
330
21C
100
AcDbEntity
  8
DIMENSION
 62
     0
100
AcDbMText
 10
12.882406
 20
74.751836
 30
0.0
 40
2.5
 41
0.0
 46
0.0
 71
     5
 72
     1
  1
R3
 11
0.9147586109066146
 21
-0.4040008462518377
 31
0.0
 73
     1
 44
1.0
  0
LINE
  5
21F
330
21C
100
AcDbEntity
  8
DIMENSION
 62
     0
370
    -2
100
AcDbLine
 10
21.920444
 20
68.710487
 30
0.0
 11
19.176169
 21
69.92249
 31
0.0
  0
SOLID
  5
220
330
21C
100
AcDbEntity
  8
DIMENSION
 62
     0
100
AcDbTrace
 10
16.720938
 20
70.551343
 30
0.0
 11
17.057606
 21
71.313641
 31
0.0
 12
19.176169
 22
69.92249
 32
0.0
 13
19.176169
 23
69.92249
 33
0.0
  0
POINT
  5
221
330
21C
100
AcDbEntity
  8
Defpoints
 62
     0
100
AcDbPoint
 10
19.176169
 20
69.92249
 30
0.0
  0
POINT
  5
222
330
21C
100
AcDbEntity
  8
Defpoints
 62
     0
100
AcDbPoint
 10
21.920444
 20
68.710487
 30
0.0
  0
ENDBLK
  5
224
330
21C
100
AcDbEntity
  8
0
100
AcDbBlockEnd
  0
BLOCK
  5
232
330
22B
100
AcDbEntity
  8
0
100
AcDbBlockBegin
  2
*D14
 70
     1
 10
0.0
 20
0.0
 30
0.0
  3
*D14
  1

  0
LINE
  5
22C
330
22B
100
AcDbEntity
  8
DIMENSION
 62
     0
370
    -2
100
AcDbLine
 10
9.647433
 20
30.768576
 30
0.0
 11
16.889272
 21
33.966916
 31
0.0
  0
MTEXT
  5
22D
330
22B
100
AcDbEntity
  8
DIMENSION
 62
     0
100
AcDbMText
 10
11.367403
 20
33.577918
 30
0.0
 40
2.5
 41
0.0
 46
0.0
 71
     5
 72
     1
  1
R3
 11
0.9147586109066146
 21
0.4040008462518377
 31
0.0
 73
     1
 44
1.0
  0
LINE
  5
22E
330
22B
100
AcDbEntity
  8
DIMENSION
 62
     0
370
    -2
100
AcDbLine
 10
21.920444
 20
36.188921
 30
0.0
 11
19.176169
 21
34.976919
 31
0.0
  0
SOLID
  5
22F
330
22B
100
AcDbEntity
  8
DIMENSION
 62
     0
100
AcDbTrace
 10
17.057606
 20
33.585767
 30
0.0
 11
16.720938
 21
34.348066
 31
0.0
 12
19.176169
 22
34.976919
 32
0.0
 13
19.176169
 23
34.976919
 33
0.0
  0
POINT
  5
230
330
22B
100
AcDbEntity
  8
Defpoints
 62
     0
100
AcDbPoint
 10
19.176169
 20
34.976919
 30
0.0
  0
POINT
  5
231
330
22B
100
AcDbEntity
  8
Defpoints
 62
     0
100
AcDbPoint
 10
21.920444
 20
36.188921
 30
0.0
  0
ENDBLK
  5
233
330
22B
100
AcDbEntity
  8
0
100
AcDbBlockEnd
  0
BLOCK
  5
256
330
24A
100
AcDbEntity
  8
0
100
AcDbBlockBegin
  2
*D15
 70
     1
 10
0.0
 20
0.0
 30
0.0
  3
*D15
  1

  0
LINE
  5
24B
330
24A
100
AcDbEntity
  8
DIMENSION
 62
     0
370
    -2
100
AcDbLine
 10
18.295444
 20
66.199704
 30
0.0
 11
9.670444
 21
66.199704
 31
0.0
  0
LINE
  5
24C
330
24A
100
AcDbEntity
  8
DIMENSION
 62
     0
370
    -2
100
AcDbLine
 10
18.295444
 20
38.699704
 30
0.0
 11
9.670444
 21
38.699704
 31
0.0
  0
LINE
  5
24D
330
24A
100
AcDbEntity
  8
DIMENSION
 62
     0
370
    -2
100
AcDbLine
 10
10.920444
 20
63.699704
 30
0.0
 11
10.920444
 21
41.199704
 31
0.0
  0
SOLID
  5
24E
330
24A
100
AcDbEntity
  8
DIMENSION
 62
     0
100
AcDbTrace
 10
11.337111
 20
63.699704
 30
0.0
 11
10.503778
 21
63.699704
 31
0.0
 12
10.920444
 22
66.199704
 32
0.0
 13
10.920444
 23
66.199704
 33
0.0
  0
SOLID
  5
24F
330
24A
100
AcDbEntity
  8
DIMENSION
 62
     0
100
AcDbTrace
 10
10.503778
 20
41.199704
 30
0.0
 11
11.337111
 21
41.199704
 31
0.0
 12
10.920444
 22
38.699704
 32
0.0
 13
10.920444
 23
38.699704
 33
0.0
  0
MTEXT
  5
250
330
24A
100
AcDbEntity
  8
DIMENSION
 62
     0
100
AcDbMText
 10
8.837111
 20
52.449704
 30
0.0
 40
2.5
 41
0.0
 46
0.0
 71
     5
 72
     1
  1
27,5
 11
6.459479416000909E-17
 21
1.0
 31
0.0
 73
     1
 44
1.0
  0
POINT
  5
251
330
24A
100
AcDbEntity
  8
Defpoints
 62
     0
100
AcDbPoint
 10
18.920444
 20
66.199704
 30
0.0
  0
POINT
  5
252
330
24A
100
AcDbEntity
  8
Defpoints
 62
     0
100
AcDbPoint
 10
18.920444
 20
38.699704
 30
0.0
  0
POINT
  5
253
330
24A
100
AcDbEntity
  8
Defpoints
 62
     0
100
AcDbPoint
 10
10.920444
 20
38.699704
 30
0.0
  0
ENDBLK
  5
257
330
24A
100
AcDbEntity
  8
0
100
AcDbBlockEnd
  0
BLOCK
  5
26D
330
261
100
AcDbEntity
  8
0
100
AcDbBlockBegin
  2
*D16
 70
     1
 10
0.0
 20
0.0
 30
0.0
  3
*D16
  1

  0
LINE
  5
262
330
261
100
AcDbEntity
  8
DIMENSION
 62
     0
370
    -2
100
AcDbLine
 10
-26.088342
 20
49.200588
 30
0.0
 11
-20.463342
 21
49.200588
 31
0.0
  0
LINE
  5
263
330
261
100
AcDbEntity
  8
DIMENSION
 62
     0
370
    -2
100
AcDbLine
 10
-26.088342
 20
59.200588
 30
0.0
 11
-20.463342
 21
59.200588
 31
0.0
  0
LINE
  5
264
330
261
100
AcDbEntity
  8
DIMENSION
 62
     0
370
    -2
100
AcDbLine
 10
-21.713342
 20
51.700588
 30
0.0
 11
-21.713342
 21
56.700588
 31
0.0
  0
SOLID
  5
265
330
261
100
AcDbEntity
  8
DIMENSION
 62
     0
100
AcDbTrace
 10
-22.130008
 20
51.700588
 30
0.0
 11
-21.296675
 21
51.700588
 31
0.0
 12
-21.713342
 22
49.200588
 32
0.0
 13
-21.713342
 23
49.200588
 33
0.0
  0
SOLID
  5
266
330
261
100
AcDbEntity
  8
DIMENSION
 62
     0
100
AcDbTrace
 10
-21.296675
 20
56.700588
 30
0.0
 11
-22.130008
 21
56.700588
 31
0.0
 12
-21.713342
 22
59.200588
 32
0.0
 13
-21.713342
 23
59.200588
 33
0.0
  0
MTEXT
  5
267
330
261
100
AcDbEntity
  8
DIMENSION
 62
     0
100
AcDbMText
 10
-23.588342
 20
54.200588
 30
0.0
 40
2.5
 41
0.0
 46
0.0
 71
     5
 72
     1
  1
10
 11
0.0
 21
1.0
 31
0.0
 73
     1
 44
1.0
  0
POINT
  5
268
330
261
100
AcDbEntity
  8
Defpoints
 62
     0
100
AcDbPoint
 10
-26.713342
 20
49.200588
 30
0.0
  0
POINT
  5
269
330
261
100
AcDbEntity
  8
Defpoints
 62
     0
100
AcDbPoint
 10
-26.713342
 20
59.200588
 30
0.0
  0
POINT
  5
26A
330
261
100
AcDbEntity
  8
Defpoints
 62
     0
100
AcDbPoint
 10
-21.713342
 20
59.200588
 30
0.0
  0
ENDBLK
  5
26E
330
261
100
AcDbEntity
  8
0
100
AcDbBlockEnd
  0
ENDSEC
  0
SECTION
  2
ENTITIES
  0
LINE
  5
94
330
1F
100
AcDbEntity
  8
0
100
AcDbLine
 10
161.73891
 20
58.449704
 30
0.0
 11
71.870611
 21
60.449704
 31
0.0
  0
LINE
  5
95
330
1F
100
AcDbEntity
  8
0
100
AcDbLine
 10
161.73891
 20
46.449704
 30
0.0
 11
71.870611
 21
44.449704
 31
0.0
  0
ARC
  5
AD
330
1F
100
AcDbEntity
  8
0
100
AcDbCircle
 10
71.870611
 20
24.449704
 30
0.0
 40
20.0
100
AcDbArc
 50
90.0
 51
137.740464
  0
ARC
  5
AF
330
1F
100
AcDbEntity
  8
0
100
AcDbCircle
 10
71.870611
 20
80.449704
 30
0.0
 40
20.0
100
AcDbArc
 50
222.259536
 51
270.0
  0
ARC
  5
C3
102
{ACAD_REACTORS
102
}
330
1F
100
AcDbEntity
  8
0
100
AcDbCircle
 10
161.73891
 20
52.449704
 30
0.0
 40
6.0
100
AcDbArc
 50
270.0
 51
90.0
  0
CIRCLE
  5
C4
102
{ACAD_REACTORS
102
}
330
1F
100
AcDbEntity
  8
0
100
AcDbCircle
 10
161.73891
 20
52.449704
 30
0.0
 40
2.0
  0
LINE
  5
1D7
102
{ACAD_REACTORS
330
259
102
}
330
1F
100
AcDbEntity
  8
0
100
AcDbLine
 10
35.920444
 20
66.199704
 30
0.0
 11
18.920444
 21
66.199704
 31
0.0
  0
LINE
  5
1D9
102
{ACAD_REACTORS
330
259
102
}
330
1F
100
AcDbEntity
  8
0
100
AcDbLine
 10
35.920444
 20
38.699704
 30
0.0
 11
18.920444
 21
38.699704
 31
0.0
  0
LINE
  5
1DE
330
1F
100
AcDbEntity
  8
0
100
AcDbLine
 10
18.920444
 20
34.913962
 30
0.0
 11
18.920444
 21
34.913962
 31
0.0
  0
LINE
  5
1DF
330
1F
100
AcDbEntity
  8
0
100
AcDbLine
 10
18.920444
 20
68.710487
 30
0.0
 11
18.920444
 21
66.199704
 31
0.0
  0
LINE
  5
1E0
330
1F
100
AcDbEntity
  8
0
100
AcDbLine
 10
18.920444
 20
38.699704
 30
0.0
 11
18.920444
 21
36.188921
 31
0.0
  0
ARC
  5
1E5
330
1F
100
AcDbEntity
  8
0
100
AcDbCircle
 10
27.73891
 20
52.449704
 30
0.0
 40
16.0
100
AcDbArc
 50
300.75352
 51
59.24648
  0
ARC
  5
21A
102
{ACAD_REACTORS
330
226
102
}
330
1F
100
AcDbEntity
  8
0
100
AcDbCircle
 10
21.920444
 20
68.710487
 30
0.0
 40
3.0
100
AcDbArc
 50
132.34294
 51
180.0
1001
McsXdata5
1071
      163
1004
05000000000000008B00000018000100E4040000000000001F050A025C020509020FEE020C4D43535F46494C4C45545F3109020FEE020C4D43535F46494C4C45545F3209020FEE020C4D43535F46494C4C45545F3309020FEE020C4D43535F46494C4C45545F3409020FEE020C4D43535F46494C4C45545F35120226020502
1004
01030201030202020103020326020302010302012202010302010302010201030201221A
  0
ARC
  5
228
330
1F
100
AcDbEntity
  8
0
100
AcDbCircle
 10
36.73891
 20
52.449704
 30
0.0
 40
25.00000000000003
100
AcDbArc
 50
35.591899
 51
132.34294
  0
ARC
  5
229
102
{ACAD_REACTORS
330
235
102
}
330
1F
100
AcDbEntity
  8
0
100
AcDbCircle
 10
21.920444
 20
36.188921
 30
0.0
 40
3.0
100
AcDbArc
 50
180.0
 51
227.65706
1001
McsXdata5
1071
      163
1004
05000000000000008B00000018000100E4040000000000001F050A025C020509020FEE020C4D43535F46494C4C45545F3109020FEE020C4D43535F46494C4C45545F3209020FEE020C4D43535F46494C4C45545F3309020FEE020C4D43535F46494C4C45545F3409020FEE020C4D43535F46494C4C45545F35120226020502
1004
01030201030202020103020326020302010302012202010302010302010201030201221A
  0
ARC
  5
236
330
1F
100
AcDbEntity
  8
0
100
AcDbCircle
 10
36.73891
 20
52.449704
 30
0.0
 40
25.00000000000001
100
AcDbArc
 50
92.198883
 51
132.34294
  0
ARC
  5
238
330
1F
100
AcDbEntity
  8
0
100
AcDbCircle
 10
36.73891
 20
52.449704
 30
0.0
 40
25.00000000000001
100
AcDbArc
 50
227.65706
 51
324.408101
  0
DIMENSION
  5
249
102
{ACAD_REACTORS
330
259
102
}
102
{ACAD_XDICTIONARY
360
258
102
}
330
1F
100
AcDbEntity
  8
DIMENSION
100
AcDbDimension
280
     0
  2
*D15
 10
10.920444
 20
38.699704
 30
0.0
 11
8.837111
 21
52.449704
 31
0.0
 70
    32
 71
     5
 42
27.5
 73
     0
 74
     0
 75
     0
  3
ISO-25
100
AcDbAlignedDimension
 13
18.920444
 23
66.199704
 33
0.0
 14
18.920444
 24
38.699704
 34
0.0
 50
90.0
100
AcDbRotatedDimension
1001
ACAD
1000
DSTYLE
1002
{
1070
   340
1005
11
1070
   279
1070
     0
1070
   144
1040
1.0
1070
   173
1070
     1
1070
   343
1005
0
1070
   342
1005
0
1070
   344
1005
0
1070
   283
1070
     0
1002
}
  0
VIEWPORT
  5
C9
330
1B
100
AcDbEntity
 67
     1
  8
0
100
AcDbViewport
 10
0.0
 20
0.0
 30
0.0
 40
412.179394
 41
214.302
 68
     1
 69
     1
 12
148.45
 22
105.05
 13
0.0
 23
0.0
 14
0.5
 24
0.5
 15
0.0
 25
0.0
 16
0.0
 26
0.0
 36
1.0
 17
0.0
 27
0.0
 37
0.0
 42
50.0
 43
0.0
 44
0.0
 45
214.302
 50
0.0
 51
0.0
 72
   100
 90
   557168
  1

281
     0
 71
     1
 74
     0
110
0.0
120
0.0
130
0.0
111
1.0
121
0.0
131
0.0
112
0.0
122
1.0
132
0.0
 79
     0
146
0.0
170
     0
 61
     5
292
     1
282
     1
141
0.0
142
0.0
 63
   256
  0
VIEWPORT
  5
241
330
1B
100
AcDbEntity
 67
     1
  8
0
100
AcDbViewport
 10
148.45
 20
105.05
 30
0.0
 40
296.9
 41
210.1
 68
     2
 69
     2
 12
93.329677
 22
52.449704
 13
0.0
 23
0.0
 14
10.0
 24
10.0
 15
10.0
 25
10.0
 16
0.0
 26
0.0
 36
1.0
 17
0.0
 27
0.0
 37
0.0
 42
50.0
 43
0.0
 44
0.0
 45
210.1
 50
0.0
 51
0.0
 72
   100
 90
   557088
  1

281
     0
 71
     1
 74
     0
110
0.0
120
0.0
130
0.0
111
1.0
121
0.0
131
0.0
112
0.0
122
1.0
132
0.0
 79
     0
146
0.0
170
     0
 61
     5
292
     1
282
     1
141
0.0
142
0.0
 63
   256
  0
ENDSEC
  0
SECTION
  2
OBJECTS
  0
DICTIONARY
  5
C
330
0
100
AcDbDictionary
281
     1
  3
ACAD_GROUP
350
D
  3
ACAD_IMAGE_DICT
350
271
  3
ACAD_IMAGE_VARS
350
6A
  3
ACAD_LAYOUT
350
1A
  3
ACAD_MATERIAL
350
72
  3
ACAD_MLEADERSTYLE
350
3F
  3
ACAD_MLINESTYLE
350
17
  3
ACAD_PLOTSETTINGS
350
19
  3
ACAD_PLOTSTYLENAME
350
E
  3
ACAD_SCALELIST
350
40
  3
ACAD_TABLESTYLE
350
3B
  3
ACAD_VISUALSTYLE
350
2A
  3
ACDB_RECOMPOSE_DATA
350
273
  3
AcDbVariableDictionary
350
3D
  3
APPDATA
350
71
  3
DictionaryVariant
350
132
  3
MCS_STREAM_DICT
350
12F
  0
DICTIONARY
  5
7E
330
2
100
AcDbDictionary
280
     1
281
     1
  3
ACAD_LAYERSTATES
360
7F
  0
DICTIONARY
  5
1DA
330
1F
100
AcDbDictionary
280
     1
281
     1
  3
ACAD_SORTENTS
360
1DB
  0
DICTIONARY
  5
258
330
249
100
AcDbDictionary
280
     1
281
     1
  3
MC_XOBJECT1
360
259
  0
DICTIONARY
  5
D
102
{ACAD_REACTORS
330
C
102
}
330
C
100
AcDbDictionary
281
     1
  0
DICTIONARY
  5
271
102
{ACAD_REACTORS
330
C
102
}
330
C
100
AcDbDictionary
281
     1
  0
RASTERVARIABLES
  5
6A
102
{ACAD_REACTORS
330
C
102
}
330
C
100
AcDbRasterVariables
 90
        0
 70
     1
 71
     1
 72
     1
  0
DICTIONARY
  5
1A
102
{ACAD_REACTORS
330
C
102
}
330
C
100
AcDbDictionary
281
     1
  3
Model
350
22
  3
Sheet1
350
1E
  0
DICTIONARY
  5
72
102
{ACAD_REACTORS
330
C
102
}
330
C
100
AcDbDictionary
281
     1
  3
ByBlock
350
74
  3
ByLayer
350
73
  3
Global
350
75
  0
DICTIONARY
  5
3F
102
{ACAD_REACTORS
330
C
102
}
330
C
100
AcDbDictionary
281
     1
  0
DICTIONARY
  5
17
102
{ACAD_REACTORS
330
C
102
}
330
C
100
AcDbDictionary
281
     1
  3
Standard
350
18
  0
DICTIONARY
  5
19
102
{ACAD_REACTORS
330
C
102
}
330
C
100
AcDbDictionary
281
     1
  3
<Previous plot>_Layout
350
242
  3
A4Landscape
350
239
  0
ACDBDICTIONARYWDFLT
  5
E
102
{ACAD_REACTORS
330
C
102
}
330
C
100
AcDbDictionary
281
     1
  3
Normal
350
F
100
AcDbDictionaryWithDefault
340
F
  0
DICTIONARY
  5
40
102
{ACAD_REACTORS
330
C
102
}
330
C
100
AcDbDictionary
281
     1
  3
A0
350
41
  3
A1
350
42
  3
A2
350
43
  3
A3
350
44
  3
A4
350
45
  3
A5
350
46
  3
A6
350
47
  3
A7
350
48
  3
A8
350
49
  3
A9
350
4A
  3
B0
350
4B
  3
B1
350
4C
  3
B2
350
4D
  3
B3
350
4E
  3
B4
350
4F
  3
B5
350
50
  3
B6
350
51
  3
B7
350
52
  3
B8
350
53
  3
B9
350
54
  3
C0
350
55
  3
C1
350
56
  3
C2
350
57
  3
C3
350
58
  3
C4
350
59
  3
C5
350
5A
  3
C6
350
5B
  3
C7
350
5C
  3
C8
350
5D
  3
C9
350
5E
  3
D0
350
5F
  3
D1
350
60
  3
D2
350
61
  0
DICTIONARY
  5
3B
102
{ACAD_REACTORS
330
C
102
}
330
C
100
AcDbDictionary
281
     1
  3
Standard
350
3C
  0
DICTIONARY
  5
2A
102
{ACAD_REACTORS
330
C
102
}
330
C
100
AcDbDictionary
281
     1
  3
2dWireframe
350
2F
  3
3D Hidden
350
31
  3
3dWireframe
350
30
  3
Basic
350
32
  3
Brighten
350
36
  3
ColorChange
350
3A
  3
Conceptual
350
34
  3
Dim
350
35
  3
Facepattern
350
39
  3
Flat
350
2B
  3
FlatWithEdges
350
2C
  3
Gouraud
350
2D
  3
GouraudWithEdges
350
2E
  3
Linepattern
350
38
  3
Realistic
350
33
  3
Thicken
350
37
  0
XRECORD
  5
273
102
{ACAD_REACTORS
330
C
102
}
330
C
100
AcDbXrecord
280
     1
 90
        1
330
3C
  0
DICTIONARY
  5
3D
102
{ACAD_REACTORS
330
C
102
}
330
C
100
AcDbDictionary
281
     1
  3
CANNOSCALE
350
62
  3
CTABLESTYLE
350
3E
  3
LIGHTSINBLOCKS
350
6F
  3
XCLIPFRAME
350
70
  0
DICTIONARY
  5
71
102
{ACAD_REACTORS
330
C
102
}
330
C
100
AcDbDictionary
281
     1
  0
DICTIONARY
  5
132
102
{ACAD_REACTORS
330
C
102
}
330
C
100
AcDbDictionary
281
     1
  3
AutomatLayers
350
133
  3
SelectConfigLayers
350
134
  0
DICTIONARY
  5
12F
102
{ACAD_REACTORS
330
C
102
}
330
C
100
AcDbDictionary
281
     1
  3
MC_VERSION_DATA
350
248
  3
MCS_DOCUMENT_ID
350
130
  3
MCS_PARAMS_DATA
350
246
  3
McSubentIdentification
350
245
  0
DICTIONARY
  5
7F
102
{ACAD_REACTORS
330
7E
102
}
330
7E
100
AcDbDictionary
281
     1
  3
ARGON_LAYERP_1
350
80
  3
ARGON_LAYERP_2
350
81
  3
ARGON_LAYERP_3
350
87
  3
ARGON_LAYERP_4
350
88
  3
ARGON_LAYERP_5
350
8B
  3
ARGON_LAYERP_6
350
97
  3
ARGON_LAYERP_7
350
C0
  3
ARGON_LAYERP_8
350
C5
  3
ARGON_LAYERP_9
350
C8
  0
SORTENTSTABLE
  5
1DB
102
{ACAD_REACTORS
330
1DA
102
}
330
1DA
100
AcDbSortentsTable
330
1F
  0
McDbContainer2
  5
259
102
{ACAD_REACTORS
330
258
102
}
330
258
100
McDbContainer2
  0
LAYOUT
  5
22
102
{ACAD_REACTORS
330
1A
102
}
330
1A
100
AcDbPlotSettings
  1

  2
none_device
  4
ISO_A3_(420.00_x_297.00_MM)
  6

 40
7.5
 41
20.0
 42
7.5
 43
20.0
 44
420.0
 45
297.0
 46
20.782828
 47
0.0
 48
0.0
 49
0.0
140
0.0
141
0.0
142
1.0
143
1.155642
 70
  1204
 72
     1
 73
     0
 74
     1
  7
monochrome.ctb
 75
     0
 76
     0
 77
     2
 78
   300
147
0.86532
148
-134.186916
149
0.0
100
AcDbLayout
  1
Model
 70
     1
 71
     0
 10
0.0
 20
0.0
 11
420.0
 21
297.0
 12
0.0
 22
0.0
 32
0.0
 14
1.000000E+20
 24
1.000000E+20
 34
1.000000E+20
 15
-1.000000E+20
 25
-1.000000E+20
 35
-1.000000E+20
146
0.0
 13
0.0
 23
0.0
 33
0.0
 16
1.0
 26
0.0
 36
0.0
 17
0.0
 27
1.0
 37
0.0
 76
     0
330
1F
331
29
  0
LAYOUT
  5
1E
102
{ACAD_REACTORS
330
1A
102
}
102
{ACAD_XDICTIONARY
360
23F
102
}
330
1A
100
AcDbPlotSettings
  1

  2
HP Photosmart C5300 series
  4
USER280
  6

 40
0.0
 41
0.0
 42
0.0
 43
0.0
 44
210.1
 45
296.9
 46
0.0
 47
0.0
 48
0.0
 49
0.0
140
0.0
141
0.0
142
1.0
143
1.0
 70
   688
 72
     1
 73
     1
 74
     5
  7

 75
    16
 76
     0
 77
     2
 78
   300
147
1.0
148
0.0
149
0.0
100
AcDbLayout
  1
Sheet1
 70
     0
 71
     1
 10
53.980556
 20
23.548611
 11
351.019444
 21
233.451389
 12
0.0
 22
0.0
 32
0.0
 14
1.000000E+20
 24
1.000000E+20
 34
1.000000E+20
 15
-1.000000E+20
 25
-1.000000E+20
 35
-1.000000E+20
146
0.0
 13
0.0
 23
0.0
 33
0.0
 16
1.0
 26
0.0
 36
0.0
 17
0.0
 27
1.0
 37
0.0
 76
     0
330
1B
331
C9
1001
ACAD_PSEXT
1000
None
1000
None
1000

1000

1070
     0
  0
MATERIAL
  5
74
102
{ACAD_REACTORS
330
72
102
}
330
72
100
AcDbMaterial
  1
ByBlock
 72
     1
 94
      127
  0
MATERIAL
  5
73
102
{ACAD_REACTORS
330
72
102
}
330
72
100
AcDbMaterial
  1
ByLayer
 72
     1
 94
      127
  0
MATERIAL
  5
75
102
{ACAD_REACTORS
330
72
102
}
330
72
100
AcDbMaterial
  1
Global
 72
     1
 94
      127
  0
MLINESTYLE
  5
18
102
{ACAD_REACTORS
330
17
102
}
330
17
100
AcDbMlineStyle
  2
Standard
 70
     0
  3

 62
   256
 51
90.0
 52
90.0
 71
     2
 49
0.5
 62
   256
  6
BYLAYER
 49
-0.5
 62
   256
  6
BYLAYER
  0
PLOTSETTINGS
  5
242
102
{ACAD_REACTORS
330
1A
102
}
102
{ACAD_XDICTIONARY
360
243
102
}
330
19
100
AcDbPlotSettings
  1
<Previous plot>
  2
HP Photosmart C5300 series
  4
USER280
  6

 40
0.0
 41
0.0
 42
0.0
 43
0.0
 44
210.1
 45
296.9
 46
0.0
 47
0.0
 48
0.0
 49
0.0
140
0.0
141
0.0
142
1.0
143
1.0
 70
   688
 72
     1
 73
     1
 74
     5
  7

 75
    16
 76
     0
 77
     2
 78
   300
147
1.0
148
0.0
149
0.0
1001
ACAD_PSEXT
1000
HP Photosmart C5300 series
1000
HP Photosmart C5300 series
1000
USB001
1000

1070
     0
  0
PLOTSETTINGS
  5
239
102
{ACAD_REACTORS
330
1A
102
}
102
{ACAD_XDICTIONARY
360
23B
102
}
330
19
100
AcDbPlotSettings
  1
A4Landscape
  2
HP Photosmart C5300 series
  4
USER280
  6

 40
0.0
 41
0.0
 42
0.0
 43
0.0
 44
210.1
 45
296.9
 46
0.0
 47
0.0
 48
0.0
 49
0.0
140
0.0
141
0.0
142
1.0
143
1.0
 70
   688
 72
     1
 73
     1
 74
     5
  7

 75
    16
 76
     0
 77
     2
 78
   300
147
1.0
148
0.0
149
0.0
1001
ACAD_PSEXT
1000
None
1000
None
1000

1000

1070
     0
  0
ACDBPLACEHOLDER
  5
F
102
{ACAD_REACTORS
330
E
102
}
330
E
  0
SCALE
  5
41
102
{ACAD_REACTORS
330
40
102
}
330
40
100
AcDbScale
 70
     0
300
1:1
140
1.0
141
1.0
290
     1
  0
SCALE
  5
42
102
{ACAD_REACTORS
330
40
102
}
330
40
100
AcDbScale
 70
     0
300
1:2
140
1.0
141
2.0
290
     0
  0
SCALE
  5
43
102
{ACAD_REACTORS
330
40
102
}
330
40
100
AcDbScale
 70
     0
300
1:4
140
1.0
141
4.0
290
     0
  0
SCALE
  5
44
102
{ACAD_REACTORS
330
40
102
}
330
40
100
AcDbScale
 70
     0
300
1:5
140
1.0
141
5.0
290
     0
  0
SCALE
  5
45
102
{ACAD_REACTORS
330
40
102
}
330
40
100
AcDbScale
 70
     0
300
1:8
140
1.0
141
8.0
290
     0
  0
SCALE
  5
46
102
{ACAD_REACTORS
330
40
102
}
330
40
100
AcDbScale
 70
     0
300
1:10
140
1.0
141
10.0
290
     0
  0
SCALE
  5
47
102
{ACAD_REACTORS
330
40
102
}
330
40
100
AcDbScale
 70
     0
300
1:16
140
1.0
141
16.0
290
     0
  0
SCALE
  5
48
102
{ACAD_REACTORS
330
40
102
}
330
40
100
AcDbScale
 70
     0
300
1:20
140
1.0
141
20.0
290
     0
  0
SCALE
  5
49
102
{ACAD_REACTORS
330
40
102
}
330
40
100
AcDbScale
 70
     0
300
1:30
140
1.0
141
30.0
290
     0
  0
SCALE
  5
4A
102
{ACAD_REACTORS
330
40
102
}
330
40
100
AcDbScale
 70
     0
300
1:40
140
1.0
141
40.0
290
     0
  0
SCALE
  5
4B
102
{ACAD_REACTORS
330
40
102
}
330
40
100
AcDbScale
 70
     0
300
1:50
140
1.0
141
50.0
290
     0
  0
SCALE
  5
4C
102
{ACAD_REACTORS
330
40
102
}
330
40
100
AcDbScale
 70
     0
300
1:100
140
1.0
141
100.0
290
     0
  0
SCALE
  5
4D
102
{ACAD_REACTORS
330
40
102
}
330
40
100
AcDbScale
 70
     0
300
2:1
140
2.0
141
1.0
290
     0
  0
SCALE
  5
4E
102
{ACAD_REACTORS
330
40
102
}
330
40
100
AcDbScale
 70
     0
300
4:1
140
4.0
141
1.0
290
     0
  0
SCALE
  5
4F
102
{ACAD_REACTORS
330
40
102
}
330
40
100
AcDbScale
 70
     0
300
8:1
140
8.0
141
1.0
290
     0
  0
SCALE
  5
50
102
{ACAD_REACTORS
330
40
102
}
330
40
100
AcDbScale
 70
     0
300
10:1
140
10.0
141
1.0
290
     0
  0
SCALE
  5
51
102
{ACAD_REACTORS
330
40
102
}
330
40
100
AcDbScale
 70
     0
300
100:1
140
100.0
141
1.0
290
     0
  0
SCALE
  5
52
102
{ACAD_REACTORS
330
40
102
}
330
40
100
AcDbScale
 70
     0
300
1/128" = 1'-0"
140
0.007812
141
12.0
290
     0
  0
SCALE
  5
53
102
{ACAD_REACTORS
330
40
102
}
330
40
100
AcDbScale
 70
     0
300
1/64" = 1'-0"
140
0.015625
141
12.0
290
     0
  0
SCALE
  5
54
102
{ACAD_REACTORS
330
40
102
}
330
40
100
AcDbScale
 70
     0
300
1/32" = 1'-0"
140
0.03125
141
12.0
290
     0
  0
SCALE
  5
55
102
{ACAD_REACTORS
330
40
102
}
330
40
100
AcDbScale
 70
     0
300
1/16" = 1'-0"
140
0.0625
141
12.0
290
     0
  0
SCALE
  5
56
102
{ACAD_REACTORS
330
40
102
}
330
40
100
AcDbScale
 70
     0
300
3/32" = 1'-0"
140
0.09375
141
12.0
290
     0
  0
SCALE
  5
57
102
{ACAD_REACTORS
330
40
102
}
330
40
100
AcDbScale
 70
     0
300
1/8" = 1'-0"
140
0.125
141
12.0
290
     0
  0
SCALE
  5
58
102
{ACAD_REACTORS
330
40
102
}
330
40
100
AcDbScale
 70
     0
300
3/16" = 1'-0"
140
0.1875
141
12.0
290
     0
  0
SCALE
  5
59
102
{ACAD_REACTORS
330
40
102
}
330
40
100
AcDbScale
 70
     0
300
1/4" = 1'-0"
140
0.25
141
12.0
290
     0
  0
SCALE
  5
5A
102
{ACAD_REACTORS
330
40
102
}
330
40
100
AcDbScale
 70
     0
300
3/8" = 1'-0"
140
0.375
141
12.0
290
     0
  0
SCALE
  5
5B
102
{ACAD_REACTORS
330
40
102
}
330
40
100
AcDbScale
 70
     0
300
1/2" = 1'-0"
140
0.5
141
12.0
290
     0
  0
SCALE
  5
5C
102
{ACAD_REACTORS
330
40
102
}
330
40
100
AcDbScale
 70
     0
300
3/4" = 1'-0"
140
0.75
141
12.0
290
     0
  0
SCALE
  5
5D
102
{ACAD_REACTORS
330
40
102
}
330
40
100
AcDbScale
 70
     0
300
1" = 1'-0"
140
1.0
141
12.0
290
     0
  0
SCALE
  5
5E
102
{ACAD_REACTORS
330
40
102
}
330
40
100
AcDbScale
 70
     0
300
1-1/2" = 1'-0"
140
1.5
141
12.0
290
     0
  0
SCALE
  5
5F
102
{ACAD_REACTORS
330
40
102
}
330
40
100
AcDbScale
 70
     0
300
3" = 1'-0"
140
3.0
141
12.0
290
     0
  0
SCALE
  5
60
102
{ACAD_REACTORS
330
40
102
}
330
40
100
AcDbScale
 70
     0
300
6" = 1'-0"
140
6.0
141
12.0
290
     0
  0
SCALE
  5
61
102
{ACAD_REACTORS
330
40
102
}
330
40
100
AcDbScale
 70
     0
300
1'-0" = 1'-0"
140
12.0
141
12.0
290
     0
  0
TABLESTYLE
  5
3C
102
{ACAD_REACTORS
330
3B
102
}
102
{ACAD_XDICTIONARY
360
CE
102
}
330
3B
100
AcDbTableStyle
  3
Standard
 70
     0
 71
     0
 40
0.06
 41
0.06
280
     0
281
     0
  7
Standard
140
4.5
170
     2
 62
     0
 63
   257
283
     0
 90
      512
 91
        0
  1

274
    -2
284
     1
 64
     0
275
    -2
285
     1
 65
     0
276
    -2
286
     1
 66
     0
277
    -2
287
     1
 67
     0
278
    -2
288
     1
 68
     0
279
    -2
289
     1
 69
     0
  7
Standard
140
6.0
170
     5
 62
     0
 63
   257
283
     0
 90
      512
 91
        0
  1

274
    -2
284
     1
 64
     0
275
    -2
285
     1
 65
     0
276
    -2
286
     1
 66
     0
277
    -2
287
     1
 67
     0
278
    -2
288
     1
 68
     0
279
    -2
289
     1
 69
     0
  7
Standard
140
4.5
170
     5
 62
     0
 63
   257
283
     0
 90
      512
 91
        0
  1

274
    -2
284
     1
 64
     0
275
    -2
285
     1
 65
     0
276
    -2
286
     1
 66
     0
277
    -2
287
     1
 67
     0
278
    -2
288
     1
 68
     0
279
    -2
289
     1
 69
     0
  0
VISUALSTYLE
  5
2F
102
{ACAD_REACTORS
330
2A
102
}
330
2A
100
AcDbVisualStyle
  2
2dWireframe
 70
     4
177
     2
291
     0
 71
     0
176
     1
 72
     2
176
     1
 73
     0
176
     1
 90
        0
176
     1
 40
-0.6
176
     1
 41
-30.0
176
     1
 62
     5
 63
     7
421
 16777215
176
     1
 74
     1
176
     1
 91
        4
176
     1
 64
     7
176
     1
 65
   257
176
     1
 75
     1
176
     1
175
     1
176
     1
 42
1.0
176
     1
 92
        0
176
     1
 66
   257
176
     1
 43
1.0
176
     1
 76
     1
176
     1
 77
     6
176
     1
 78
     2
176
     1
 67
     7
176
     1
 79
     5
176
     1
170
     0
176
     1
171
     0
176
     1
290
     0
176
     1
 93
        1
176
     1
 44
0.0
176
     1
173
     0
176
     1
  0
VISUALSTYLE
  5
31
102
{ACAD_REACTORS
330
2A
102
}
330
2A
100
AcDbVisualStyle
  2
3D Hidden
 70
     6
177
     2
291
     0
 71
     1
176
     1
 72
     2
176
     1
 73
     2
176
     1
 90
        0
176
     1
 40
-0.6
176
     1
 41
-30.0
176
     1
 62
     5
 63
     7
421
 16777215
176
     1
 74
     2
176
     1
 91
        2
176
     1
 64
     7
176
     1
 65
   257
176
     1
 75
     2
176
     1
175
     1
176
     1
 42
40.0
176
     1
 92
        0
176
     1
 66
   257
176
     1
 43
1.0
176
     1
 76
     1
176
     1
 77
     6
176
     1
 78
     2
176
     1
 67
     7
176
     1
 79
     3
176
     1
170
     0
176
     1
171
     0
176
     1
290
     0
176
     1
 93
        1
176
     1
 44
0.0
176
     1
173
     0
176
     1
  0
VISUALSTYLE
  5
30
102
{ACAD_REACTORS
330
2A
102
}
330
2A
100
AcDbVisualStyle
  2
3dWireframe
 70
     5
177
     2
291
     0
 71
     0
176
     1
 72
     2
176
     1
 73
     0
176
     1
 90
        0
176
     1
 40
-0.6
176
     1
 41
-30.0
176
     1
 62
     5
 63
     7
421
 16777215
176
     1
 74
     1
176
     1
 91
        4
176
     1
 64
     7
176
     1
 65
   257
176
     1
 75
     1
176
     1
175
     1
176
     1
 42
1.0
176
     1
 92
        0
176
     1
 66
   257
176
     1
 43
1.0
176
     1
 76
     1
176
     1
 77
     6
176
     1
 78
     2
176
     1
 67
     7
176
     1
 79
     5
176
     1
170
     0
176
     1
171
     0
176
     1
290
     0
176
     1
 93
        1
176
     1
 44
0.0
176
     1
173
     0
176
     1
  0
VISUALSTYLE
  5
32
102
{ACAD_REACTORS
330
2A
102
}
330
2A
100
AcDbVisualStyle
  2
Basic
 70
     7
177
     2
291
     1
 71
     1
176
     1
 72
     0
176
     1
 73
     1
176
     1
 90
        0
176
     1
 40
-0.6
176
     1
 41
-30.0
176
     1
 62
     5
 63
     7
421
 16777215
176
     1
 74
     0
176
     1
 91
        4
176
     1
 64
     7
176
     1
 65
   257
176
     1
 75
     1
176
     1
175
     1
176
     1
 42
1.0
176
     1
 92
        8
176
     1
 66
     7
176
     1
 43
1.0
176
     1
 76
     1
176
     1
 77
     6
176
     1
 78
     2
176
     1
 67
     7
176
     1
 79
     5
176
     1
170
     0
176
     1
171
     0
176
     1
290
     0
176
     1
 93
        1
176
     1
 44
0.0
176
     1
173
     0
176
     1
  0
VISUALSTYLE
  5
36
102
{ACAD_REACTORS
330
2A
102
}
330
2A
100
AcDbVisualStyle
  2
Brighten
 70
    12
177
     2
291
     1
 71
     2
176
     1
 72
     2
176
     1
 73
     0
176
     1
 90
        0
176
     1
 40
-0.6
176
     1
 41
-30.0
176
     1
 62
     5
 63
     7
421
 16777215
176
     1
 74
     1
176
     1
 91
        4
176
     1
 64
     7
176
     1
 65
   257
176
     1
 75
     1
176
     1
175
     1
176
     1
 42
1.0
176
     1
 92
        8
176
     1
 66
     7
176
     1
 43
1.0
176
     1
 76
     1
176
     1
 77
     6
176
     1
 78
     2
176
     1
 67
     7
176
     1
 79
     5
176
     1
170
     0
176
     1
171
     0
176
     1
290
     0
176
     1
 93
        1
176
     1
 44
50.0
176
     1
173
     0
176
     1
  0
VISUALSTYLE
  5
3A
102
{ACAD_REACTORS
330
2A
102
}
330
2A
100
AcDbVisualStyle
  2
ColorChange
 70
    16
177
     2
291
     1
 71
     2
176
     1
 72
     2
176
     1
 73
     3
176
     1
 90
        0
176
     1
 40
-0.6
176
     1
 41
-30.0
176
     1
 62
     5
 63
     8
421
  8421504
176
     1
 74
     1
176
     1
 91
        4
176
     1
 64
     7
176
     1
 65
   257
176
     1
 75
     1
176
     1
175
     1
176
     1
 42
1.0
176
     1
 92
        8
176
     1
 66
     8
424
  8421504
176
     1
 43
1.0
176
     1
 76
     1
176
     1
 77
     6
176
     1
 78
     2
176
     1
 67
     7
176
     1
 79
     5
176
     1
170
     0
176
     1
171
     0
176
     1
290
     0
176
     1
 93
        1
176
     1
 44
0.0
176
     1
173
     0
176
     1
  0
VISUALSTYLE
  5
34
102
{ACAD_REACTORS
330
2A
102
}
330
2A
100
AcDbVisualStyle
  2
Conceptual
 70
     9
177
     2
291
     0
 71
     3
176
     1
 72
     2
176
     1
 73
     0
176
     1
 90
        0
176
     1
 40
-0.6
176
     1
 41
-30.0
176
     1
 62
     5
 63
     7
421
 16777215
176
     1
 74
     2
176
     1
 91
        2
176
     1
 64
     7
176
     1
 65
   257
176
     1
 75
     1
176
     1
175
     1
176
     1
 42
40.0
176
     1
 92
        8
176
     1
 66
     7
176
     1
 43
1.0
176
     1
 76
     1
176
     1
 77
     6
176
     1
 78
     2
176
     1
 67
     7
176
     1
 79
     3
176
     1
170
     0
176
     1
171
     0
176
     1
290
     0
176
     1
 93
        1
176
     1
 44
0.0
176
     1
173
     0
176
     1
  0
VISUALSTYLE
  5
35
102
{ACAD_REACTORS
330
2A
102
}
330
2A
100
AcDbVisualStyle
  2
Dim
 70
    11
177
     2
291
     1
 71
     2
176
     1
 72
     2
176
     1
 73
     0
176
     1
 90
        0
176
     1
 40
-0.6
176
     1
 41
-30.0
176
     1
 62
     5
 63
     7
421
 16777215
176
     1
 74
     1
176
     1
 91
        4
176
     1
 64
     7
176
     1
 65
   257
176
     1
 75
     1
176
     1
175
     1
176
     1
 42
1.0
176
     1
 92
        8
176
     1
 66
     7
176
     1
 43
1.0
176
     1
 76
     1
176
     1
 77
     6
176
     1
 78
     2
176
     1
 67
     7
176
     1
 79
     5
176
     1
170
     0
176
     1
171
     0
176
     1
290
     0
176
     1
 93
        1
176
     1
 44
-50.0
176
     1
173
     0
176
     1
  0
VISUALSTYLE
  5
39
102
{ACAD_REACTORS
330
2A
102
}
330
2A
100
AcDbVisualStyle
  2
Facepattern
 70
    15
177
     2
291
     1
 71
     2
176
     1
 72
     2
176
     1
 73
     0
176
     1
 90
        0
176
     1
 40
-0.6
176
     1
 41
-30.0
176
     1
 62
     5
 63
     7
421
 16777215
176
     1
 74
     1
176
     1
 91
        4
176
     1
 64
     7
176
     1
 65
   257
176
     1
 75
     1
176
     1
175
     1
176
     1
 42
1.0
176
     1
 92
        8
176
     1
 66
     7
176
     1
 43
1.0
176
     1
 76
     1
176
     1
 77
     6
176
     1
 78
     2
176
     1
 67
     7
176
     1
 79
     5
176
     1
170
     0
176
     1
171
     0
176
     1
290
     0
176
     1
 93
        1
176
     1
 44
0.0
176
     1
173
     0
176
     1
  0
VISUALSTYLE
  5
2B
102
{ACAD_REACTORS
330
2A
102
}
330
2A
100
AcDbVisualStyle
  2
Flat
 70
     0
177
     2
291
     1
 71
     2
176
     1
 72
     1
176
     1
 73
     1
176
     1
 90
        2
176
     1
 40
-0.6
176
     1
 41
30.0
176
     1
 62
     5
 63
     7
421
 16777215
176
     1
 74
     0
176
     1
 91
        4
176
     1
 64
     7
176
     1
 65
   257
176
     1
 75
     1
176
     1
175
     1
176
     1
 42
1.0
176
     1
 92
        8
176
     1
 66
     7
176
     1
 43
1.0
176
     1
 76
     1
176
     1
 77
     6
176
     1
 78
     2
176
     1
 67
     7
176
     1
 79
     5
176
     1
170
     0
176
     1
171
     0
176
     1
290
     0
176
     1
 93
       13
176
     1
 44
0.0
176
     1
173
     0
176
     1
  0
VISUALSTYLE
  5
2C
102
{ACAD_REACTORS
330
2A
102
}
330
2A
100
AcDbVisualStyle
  2
FlatWithEdges
 70
     1
177
     2
291
     1
 71
     2
176
     1
 72
     1
176
     1
 73
     1
176
     1
 90
        2
176
     1
 40
-0.6
176
     1
 41
30.0
176
     1
 62
     5
 63
     7
421
 16777215
176
     1
 74
     1
176
     1
 91
        4
176
     1
 64
     7
176
     1
 65
   257
176
     1
 75
     1
176
     1
175
     1
176
     1
 42
1.0
176
     1
 92
        0
176
     1
 66
   257
176
     1
 43
1.0
176
     1
 76
     1
176
     1
 77
     6
176
     1
 78
     2
176
     1
 67
     7
176
     1
 79
     5
176
     1
170
     0
176
     1
171
     0
176
     1
290
     0
176
     1
 93
       13
176
     1
 44
0.0
176
     1
173
     0
176
     1
  0
VISUALSTYLE
  5
2D
102
{ACAD_REACTORS
330
2A
102
}
330
2A
100
AcDbVisualStyle
  2
Gouraud
 70
     2
177
     2
291
     1
 71
     2
176
     1
 72
     2
176
     1
 73
     1
176
     1
 90
        2
176
     1
 40
-0.6
176
     1
 41
30.0
176
     1
 62
     5
 63
     7
421
 16777215
176
     1
 74
     0
176
     1
 91
        4
176
     1
 64
     7
176
     1
 65
   257
176
     1
 75
     1
176
     1
175
     1
176
     1
 42
1.0
176
     1
 92
        0
176
     1
 66
     7
176
     1
 43
1.0
176
     1
 76
     1
176
     1
 77
     6
176
     1
 78
     2
176
     1
 67
     7
176
     1
 79
     5
176
     1
170
     0
176
     1
171
     0
176
     1
290
     0
176
     1
 93
       13
176
     1
 44
0.0
176
     1
173
     0
176
     1
  0
VISUALSTYLE
  5
2E
102
{ACAD_REACTORS
330
2A
102
}
330
2A
100
AcDbVisualStyle
  2
GouraudWithEdges
 70
     3
177
     2
291
     1
 71
     2
176
     1
 72
     2
176
     1
 73
     1
176
     1
 90
        2
176
     1
 40
-0.6
176
     1
 41
30.0
176
     1
 62
     5
 63
     7
421
 16777215
176
     1
 74
     1
176
     1
 91
        4
176
     1
 64
     7
176
     1
 65
   257
176
     1
 75
     1
176
     1
175
     1
176
     1
 42
1.0
176
     1
 92
        0
176
     1
 66
   257
176
     1
 43
1.0
176
     1
 76
     1
176
     1
 77
     6
176
     1
 78
     2
176
     1
 67
     7
176
     1
 79
     5
176
     1
170
     0
176
     1
171
     0
176
     1
290
     0
176
     1
 93
       13
176
     1
 44
0.0
176
     1
173
     0
176
     1
  0
VISUALSTYLE
  5
38
102
{ACAD_REACTORS
330
2A
102
}
330
2A
100
AcDbVisualStyle
  2
Linepattern
 70
    14
177
     2
291
     1
 71
     2
176
     1
 72
     2
176
     1
 73
     0
176
     1
 90
        0
176
     1
 40
-0.6
176
     1
 41
-30.0
176
     1
 62
     5
 63
     7
421
 16777215
176
     1
 74
     1
176
     1
 91
        4
176
     1
 64
     7
176
     1
 65
   257
176
     1
 75
     7
176
     1
175
     7
176
     1
 42
1.0
176
     1
 92
        8
176
     1
 66
     7
176
     1
 43
1.0
176
     1
 76
     1
176
     1
 77
     6
176
     1
 78
     2
176
     1
 67
     7
176
     1
 79
     5
176
     1
170
     0
176
     1
171
     0
176
     1
290
     0
176
     1
 93
        1
176
     1
 44
0.0
176
     1
173
     0
176
     1
  0
VISUALSTYLE
  5
33
102
{ACAD_REACTORS
330
2A
102
}
330
2A
100
AcDbVisualStyle
  2
Realistic
 70
     8
177
     2
291
     0
 71
     2
176
     1
 72
     2
176
     1
 73
     0
176
     1
 90
        0
176
     1
 40
-0.6
176
     1
 41
-30.0
176
     1
 62
     5
 63
     7
421
 16777215
176
     1
 74
     1
176
     1
 91
        0
176
     1
 64
     7
176
     1
 65
   257
176
     1
 75
     1
176
     1
175
     1
176
     1
 42
1.0
176
     1
 92
        8
176
     1
 66
     8
424
  7895160
176
     1
 43
1.0
176
     1
 76
     1
176
     1
 77
     6
176
     1
 78
     2
176
     1
 67
     7
176
     1
 79
     5
176
     1
170
     0
176
     1
171
     0
176
     1
290
     0
176
     1
 93
       13
176
     1
 44
0.0
176
     1
173
     0
176
     1
  0
VISUALSTYLE
  5
37
102
{ACAD_REACTORS
330
2A
102
}
330
2A
100
AcDbVisualStyle
  2
Thicken
 70
    13
177
     2
291
     1
 71
     2
176
     1
 72
     2
176
     1
 73
     0
176
     1
 90
        0
176
     1
 40
-0.6
176
     1
 41
-30.0
176
     1
 62
     5
 63
     7
421
 16777215
176
     1
 74
     1
176
     1
 91
        4
176
     1
 64
     7
176
     1
 65
   257
176
     1
 75
     1
176
     1
175
     1
176
     1
 42
1.0
176
     1
 92
       12
176
     1
 66
     7
176
     1
 43
1.0
176
     1
 76
     1
176
     1
 77
     6
176
     1
 78
     2
176
     1
 67
     7
176
     1
 79
     5
176
     1
170
     0
176
     1
171
     0
176
     1
290
     0
176
     1
 93
        1
176
     1
 44
0.0
176
     1
173
     0
176
     1
  0
DICTIONARYVAR
  5
62
102
{ACAD_REACTORS
330
3D
102
}
330
3D
100
DictionaryVariables
280
     0
  1
1:1
  0
DICTIONARYVAR
  5
3E
102
{ACAD_REACTORS
330
3D
102
}
330
3D
100
DictionaryVariables
280
     0
  1
Standard
  0
DICTIONARYVAR
  5
6F
102
{ACAD_REACTORS
330
3D
102
}
330
3D
100
DictionaryVariables
280
     0
  1
0
  0
DICTIONARYVAR
  5
70
102
{ACAD_REACTORS
330
3D
102
}
330
3D
100
DictionaryVariables
280
     0
  1
0
  0
XRECORD
  5
133
102
{ACAD_REACTORS
330
132
102
}
330
132
100
AcDbXrecord
280
     1
5010
        1
  0
XRECORD
  5
134
102
{ACAD_REACTORS
330
132
102
}
330
132
100
AcDbXrecord
280
     1
  1

  0
XRECORD
  5
248
102
{ACAD_REACTORS
330
12F
102
}
330
12F
100
AcDbXrecord
280
     1
300
MC_VERSION_DATA
 90
       91
310
05000000020000005700000018000100E4040000000000007801936764E5D06789606765600631188080939989899999C1819995818191879389EF1D13775E625EBEB3A38B826B5E3A01F55AE7FFFFFF2F050073290B9757000000
  0
XRECORD
  5
130
102
{ACAD_REACTORS
330
12F
102
}
330
12F
100
AcDbXrecord
280
     1
300
MCS_DOCUMENT_ID
 90
       56
310
05000000020000001500000018000100E4040000000000007801E35D7F46B2640A879B6B77CFDA0F8FE7282AFF0702006AFA0BB015000000
  0
XRECORD
  5
246
102
{ACAD_REACTORS
330
12F
102
}
330
12F
100
AcDbXrecord
280
     1
300
MCS_PARAMS_DATA
 90
     3266
310
0500000002000000C44B000018000100E4040000000000007801CD5C6B8C555715BE73F69DC71DA0BCA1636D1D6B40B808BDF3826248AC14DAD0D299263336F18FCD30038A8E0C8F89D677FDA1694C4CFCD3C43FFE914A1F893F4C4C4B9A34C6D807B5D5AA14983E79B5082D8EADF4017498717DEBEC7DF6DA679F33730738
310
F70E3FDABBD659FB7CEBBDF6DEF742F39C1A15E495DA9753EA5BEB97ABA05EA971A5823A15D4CC0DE606F4B450080A23415DCF97D76FDED8AD02623632BB787A7C7C9C1647F43068757F2E623CC78C1CADA8E315CB95CAD15BF5F247E9A97E5273A352DF047A2DBD9F902D4A8DCA8FE7A4D800C448BB48AC01E2356A8C5ECC
310
2878D7B721D4202D59C80A1482592341E3ED5DDD3DCDADABDA4AED16A7507CCB58335F8BCE18091ABA877A77F4F7EEEE77CC7A32324B5BF272C8B0A6FDDA356D07D45921D5B90618AA2EC77FF2B7B01E1E8F3C1BE7B1773D263CEC33499D1853786830F4B688F50CA854A36A49A531D6C76590328271297488E08C516C490D
310
C12119445B728402BBC2380A05A24032BAA008DA52EC0141025492841891026E0870810C01278B5AC260D16782329F192822A224A6156C967E2220767A10DAFD6DFCE7E49718CAE3D928477232CA9629A22C9836CA8629547A730659ED54F4029DDC334782C2864D776DECECDED4D5C98AE95C7EDB9481A60F716E8BA27E3A
310
4CF694A2DEE766FE51289087E7814B6BEAF1FF86807A043B10C5FA1A649CD07000D552AA602C1194C9047E66332124A34CD0A4C9049002EE78A8921AA52E479A995772F2DB5786245E69340EC3AE730BCD3132E075BC71B1CC2D2345661B0360BE834616C3AB5694EB4792C6002C9D1BB4C173F58DC18A4015823923C1AC0D
310
833B3E3FD4BC7BEBCE81DEBEAD85A06124A8BD7B70FB8EA1F063E7E050DF37943A09DD3E2D75FB9C7ECF7541B0BC102C1C09E695EEEB28AD6D6F6D5BDF512AB5DE76735BFB5A069CA3051B48B078D8A4458BE62E0F8242802CBA6DFBD09EE681ED7B08377C59FB9A35AD6D6B3ADA3BDAFADB5BFBD6B684767E51AF6BC53A08
310
F6F46E19D8DA3CB8ADB9677060EBEEDE1DB0416BB3BABFD4D257EAEB5DBDA57DCBDABED56167E1CC25FB670641F1E7A44DF15761229297E4A3BD78F438FD470468759E9C50924E980D6D68B0D58F04F9AE6DDB9AD9609DF1EFE0BD62ACBDCA38A2029E67067243AFD81F324813CD7898187303EB69557C9038215CCB4D2DA5
310
E853BB521F2852AE562AC72FC1E0831E84223A2875664A5887C1592497701EB90CA359F852E1990F3DF0023C5343EAE4CAC5162B18DAA109D9D202F8A36A019FAF16F0C7D502BE502DE0F9283B27B36D2A649A5C9F54CBE28BD5021E05709D6C226690AC634F1BAAD51941EBDC1144643443A90980A4F2354BD789EABD940A
310
D7E4C0151CB826178E48090752C03509B8B132E1085C8CF3CB86CB216F139DB96C02EB96B9D61129AD0329AC5B26AC1BAFAC7535A9D6B9B1BB4ACE5C900AD7EF389328113B7DE032B947A4742648E1CC7EE14C950A9789754165E10A80CBCB32D7BB532A57DA28981D293C193DE0FD81A5E04741911B0D65D7AB45571587AE
310
1610AE049C46E0344B7BD884FA15D61C7C26730C9FAD8908186309C2D08430651E209C23D062BDF79B3D12CCBCB5FBDEAF74DEBDB9ABA767E306C6D41BB813BCF7225C795EB29276CF55283E01514E4FF9E29E4D3D9B37DEBB7E73D7AD777687E6EB373F40E242BD23F5F188B209742E42408DCBAC0B7060C256D44831B016
310
D37ED68F84CCF50502493C61891A544B0351834C3112D760484635A84953832005DCFBB029112E4C53F346A2C8C39672E0680B2AE1400A38136AB8A3FF5A76218E57E1FB8D3B844A5F808C93057CBAA113008E4D9D5D3DEECDD619137E1DB45738C6E20870200A3A7B9BFCCBEA694200AF0470A22F70D565ADC76154528E2F
310
680F257D01D238402D1160A554B0D031CE75D079BA8F20C838CF012E3F08DF498576ED24EACAEDFCAE07E6DCAA1C4CB86901CF5A1B5E95108FAD8D2F6667FB4C72798C295CDFE2A964F2DAB5FF32E21CBD48C0DD5459B8559585BBAF4CB8CB48A624677ECF838BC5992BD5E365994EDFF7548A1477DAC655F2C00F2A0BF7C3
310
CAC2FDA8B2703FF6E0BCD4A1C6EFF1B24CA7DF2E8E8F3F3DD87217F41D93A6DF3BEFDE7D1D03CD4D520BBCC48C68DF65069F7EFA077A2ABAD41E7802FDCF4C66797125E4862097F09D4E200F813B21D420F78A1A74C529D786EB982677EAE7AB414B1B2ED21D773851B5C40296C04CD58C619210FAED85FB9C8B0C96A3DBB4
310
5C2EBCA273688296860A6CBD82078C5CC2F35C3004F623C076BE3B9AA813E8AC8ABE5772A679F236227A9D00ED83AF0994BEC241FCC83146AA5E8ED16418DA66C9DD0A48F90201F3286C4BDC1C51C688CD1151B63A4250DABD38B6D15B24284802E5FD98B3457A6C4A90C66ADA074577F5B4D92D17ECA15430148575EA6574
310
71DFB2DF55126C5F25C11E4E054B3A4F3825104F93F237B4BB50024843D3BB4C2E2891C0BBE342B1AE2E443F8411CE09C49C1C90095CFB85E2AE736865B675F582E6D433C29CE59630395E582EA03E0294D3AE9C7614E1E1DB00F4AFC47EE52C61D41887A02547E07F0CFCC4FB33E70E664C9CFFF0FDBDA8317A52FEEDE079
310
C0250D8679C7E04DEBDD8069EBDDEB41B377B5FB8F1F05037DE433FA8E60F11B41E3FCFC0DF9CFE66FCC37E75A73AB726DB952AE5D9FB4F5B2C7689930FF02F4713AB69392D5F8B6FFE2F453E913A8546692228C573B494781EFCC1E274A381D531E783C5223CEE30CF298C8229F494513638AC4B9E4A9647A4E529FB3CF9C
310
D9547E871B4B85A3A94FDA1B80098FACCA9DBB20C9C668A9B06EDC838B79A2F20ECF85ED3BFE1B149AF09978A0A6B2704165E19407A7E31B5DB68882B23C5B50114F1694658A82124C5B50862952EE2F483967E6EA8E5D38EB4E860BEFEA16A39F9F012D27C33033A082337BB5F893F454C03E0D5879EC61B170DA0AB16720
310
9670EA717EC9F62C8492865B07DD4972C5681D96306D87DB2DA0A5097966C004BDE28690411ED48C13C38E19CF017A7ACDB103A16745C11AD7C60F62B89F4D9E197205CF7A9761DC111ED544B89E07F6F41A187FF554328D379381F1422A5C26EDF2450FAEEA03E36F9E4AC6E19978E0EF21DCC4679097CA11FA475C28D69B
310
459EFF13A24ED3342D4F6CA50FC4EE58F647772C46B89C83CABF0055E61E308B83CA41E057EEA0F232E0927AF9F6836E2FFF2AD3B6970F8196BDFC6666885E7ECF3948881BAC452421827A08D0D3AB971F9E42F0539BB93C81863BD11887DAB9E408971C01FEF4EAE7C39E4AA6BD64D2CF5F4985CBA49BBDEAC155BD9FBFE6
310
A9641C9E89075EAF2C5CBBB723CFD4BA0E0F2E3664E401CFECD679931697BB6A078037E0F0C966D9286E7DC4A5DB59BE058A7E64C15F71C437FE7ACA8976F226A0AA38CB8E02BF72B3EC18E09266D96F5E8437ED29E3974CDB59F6086839CB06982166D92FCE4242CCB23B484278FA38A0D367D9CC84BF4D039E3D6886DF20
310
104FE699654215A7334112EAC49842A51313AB548D2BBF9350C9196FA6F83399256F01AECCF4D7E526E772180A978338C438E9D3FC6DCF5C275AD5B8CE3BE5A99469047E82F6BB527E3F6AB6E2A8C6E8339581F9CCE91F1170B725C8D39AD01FF04BAB9F02222DC8A35CF52260C4203087C1882E2716E5D1B0D4A48C50E07E
310
2890D4E4C6F28CCE0EA6EF128822684B31AE20012A49B2362205DCBF11C1C9C6C753B18B97DF47172FD69B93BBF6F414EA278BA3D019E0277996BE8841FE18F750F3109EBDECEF6CDE015CD2F8F8DAB3EEF8E8649A20F51DD576D01C4ECD58C90C045433EE3C151B1F33484204F55D404FAFF171766295AA313EFE0395D24A
310
3DFCFBA1E6DE2CFDAA4D54B1FFD743C149EFE723C0AFDCF8FAAF0757F5F1F19EA712D7A05AAA7FE52A285391FCCCF6BA908C7A9D264DAF0329CAE2FD54B846DB00680D5102AE31AC45A30B91120EA4806B1470FF4B85CBE4E4752E152EE99726C61CCABFC97FF611090BEB3E4885CB64F395C7589C6C4E2DC49D1162A7FB64
310
2DDF214DF598533BD11620D617B2985375693B806CE6543DE092E6D4E37F72E7D43EA6AD77FF0C5ACEA99F3143CCA9BD476373AA8F24440E35003A7D4E55632814A6107C9D6CEE0840B6B91C3824C6491F0A8DC0778642D5BBF40C4F25D30F32A9F499A97099B4CD591E5CD51D7E8DA7927178261E985D59B83995859BEBC1
310
E9F8DAEB39AA4F8F476D2ECEE356E73151DD3E930A3CC6146D6FB3A79289EF15FF66327A9180BBCB838BA9C69B1F8F97A507E641A5C9A6F9ED2FE806ABA7F91AD01C84A99C3AE703AACC5D7E16D37C01F02B77EA5C08B8A4697E9AFE121F075A7B7398693BCDCF8196D3FC096688697EE80824C4A5E5832421F26C11A0A7D7
310
345F3C85E0C33DE40E77525FE134BF16F8D36B9A37792A999E91C534C741AEB6F8D033E4DCFCE1C387D5982A7E7D3F881CFEF18DA6E2037F04310EDF3715EFA17F4C8B2EF7F0A010E447829A52F8684C7DEAFFC6CF29AFC44B0000
  0
XRECORD
  5
245
102
{ACAD_REACTORS
330
12F
102
}
330
12F
100
AcDbXrecord
280
     1
300
McSubentIdentification
 90
       58
310
05000000020001001500000018000100E4040000000000007801936792597F46B2640A879B6B77CFDA0F8FE7282A2B49010055CC082015000000
  0
XRECORD
  5
80
102
{ACAD_REACTORS
330
7F
102
}
330
7F
100
AcDbXrecord
280
     1
 91
     1023
301

290
     0
302
0
330
10
 90
        8
 62
     7
370
    -3
331
16
  1
Color_7
  0
XRECORD
  5
81
102
{ACAD_REACTORS
330
7F
102
}
330
7F
100
AcDbXrecord
280
     1
 91
     1023
301

290
     0
302
0
330
10
 90
        8
 62
     7
370
    -3
331
16
  1
Color_7
  0
XRECORD
  5
87
102
{ACAD_REACTORS
330
7F
102
}
330
7F
100
AcDbXrecord
280
     1
 91
     1023
301

290
     0
302
0
330
10
 90
        8
 62
     7
370
    -3
331
16
  1
Color_7
330
82
 90
        8
 62
     1
370
    -3
331
16
  1
Color_1
  0
XRECORD
  5
88
102
{ACAD_REACTORS
330
7F
102
}
330
7F
100
AcDbXrecord
280
     1
 91
     1023
301

290
     0
302
0
330
10
 90
        8
 62
     7
370
    -3
331
16
  1
Color_7
330
82
 90
        8
 62
     1
370
    -3
331
16
  1
Color_1
  0
XRECORD
  5
8B
102
{ACAD_REACTORS
330
7F
102
}
330
7F
100
AcDbXrecord
280
     1
 91
     1023
301

290
     0
302
temp
330
10
 90
        8
 62
     7
370
    -3
331
16
  1
Color_7
330
82
 90
        8
 62
     1
370
    -3
331
16
  1
Color_1
  0
XRECORD
  5
97
102
{ACAD_REACTORS
330
7F
102
}
330
7F
100
AcDbXrecord
280
     1
 91
     1023
301

290
     0
302
0
330
10
 90
        8
 62
     7
370
    -3
331
16
  1
Color_7
330
82
 90
        8
 62
     1
370
    -3
331
16
  1
Color_1
  0
XRECORD
  5
C0
102
{ACAD_REACTORS
330
7F
102
}
330
7F
100
AcDbXrecord
280
     1
 91
     1023
301

290
     0
302
temp
330
10
 90
        8
 62
     7
370
    -3
331
16
  1
Color_7
330
82
 90
        8
 62
     1
370
    -3
331
16
  1
Color_1
330
9B
 90
        0
 62
     7
370
    -3
331
16
  1
Color_7
  0
XRECORD
  5
C5
102
{ACAD_REACTORS
330
7F
102
}
330
7F
100
AcDbXrecord
280
     1
 91
     1023
301

290
     0
302
0
330
10
 90
        8
 62
     7
370
    -3
331
16
  1
Color_7
330
82
 90
        8
 62
     1
370
    -3
331
16
  1
Color_1
330
9B
 90
        0
 62
     7
370
    -3
331
16
  1
Color_7
  0
XRECORD
  5
C8
102
{ACAD_REACTORS
330
7F
102
}
330
7F
100
AcDbXrecord
280
     1
 91
     1023
301

290
     0
302
temp
330
10
 90
        8
 62
     7
370
    -3
331
16
  1
Color_7
330
82
 90
        8
 62
     1
370
    -3
331
16
  1
Color_1
330
9B
 90
        0
 62
     7
370
    -3
331
16
  1
Color_7
  0
DICTIONARY
  5
23F
330
1E
100
AcDbDictionary
280
     1
281
     1
  3
CSD_PLOT_CONFIG
360
240
  0
DICTIONARY
  5
243
330
242
100
AcDbDictionary
280
     1
281
     1
  3
CSD_PLOT_CONFIG
360
244
  0
DICTIONARY
  5
23B
330
239
100
AcDbDictionary
280
     1
281
     1
  3
CSD_PLOT_CONFIG
360
23C
  0
DICTIONARY
  5
CE
330
3C
100
AcDbDictionary
280
     1
281
     1
  3
ACAD_ROUNDTRIP_2008_TABLESTYLE_CELLSTYLEMAP
360
272
  0
LAYOUTPRINTCONFIG
  5
240
102
{ACAD_REACTORS
330
23B
330
23F
102
}
330
23F
100
AcDbEntity
  8
0
160
                 8
310
0800000000000000
100
CAcLayoutPrintConfig
 93
        0
  0
LAYOUTPRINTCONFIG
  5
244
102
{ACAD_REACTORS
330
23B
330
23F
330
243
102
}
330
243
100
AcDbEntity
  8
0
160
                 8
310
0800000000000000
100
CAcLayoutPrintConfig
 93
        0
  0
LAYOUTPRINTCONFIG
  5
23C
102
{ACAD_REACTORS
330
23B
102
}
330
23B
100
AcDbEntity
  8
0
160
                 8
310
0800000000000000
100
CAcLayoutPrintConfig
 93
        0
  0
CELLSTYLEMAP
  5
272
102
{ACAD_REACTORS
330
CE
102
}
330
CE
100
AcDbCellStyleMap
 90
        3
300
CELLSTYLE
  1
TABLEFORMAT_BEGIN
 90
        5
170
     1
 91
        0
 92
    32768
 62
   257
 93
        1
300
CONTENTFORMAT
  1
CONTENTFORMAT_BEGIN
 90
        0
 91
        0
 92
      512
 93
        0
300

 40
0.0
140
1.0
 94
        5
 62
     0
340
11
144
6.0
309
CONTENTFORMAT_END
171
     1
301
MARGIN
  1
CELLMARGIN_BEGIN
 40
0.06
 40
0.06
 40
0.06
 40
0.06
 40
0.18
 40
0.18
309
CELLMARGIN_END
 94
        6
 95
        1
302
GRIDFORMAT
  1
GRIDFORMAT_BEGIN
 90
        0
 91
        1
 62
     0
 92
       -2
340
0
 93
        0
 40
0.045
309
GRIDFORMAT_END
 95
        2
302
GRIDFORMAT
  1
GRIDFORMAT_BEGIN
 90
        0
 91
        1
 62
     0
 92
       -2
340
0
 93
        0
 40
0.045
309
GRIDFORMAT_END
 95
        4
302
GRIDFORMAT
  1
GRIDFORMAT_BEGIN
 90
        0
 91
        1
 62
     0
 92
       -2
340
0
 93
        0
 40
0.045
309
GRIDFORMAT_END
 95
        8
302
GRIDFORMAT
  1
GRIDFORMAT_BEGIN
 90
        0
 91
        1
 62
     0
 92
       -2
340
0
 93
        0
 40
0.045
309
GRIDFORMAT_END
 95
       16
302
GRIDFORMAT
  1
GRIDFORMAT_BEGIN
 90
        0
 91
        1
 62
     0
 92
       -2
340
0
 93
        0
 40
0.045
309
GRIDFORMAT_END
 95
       32
302
GRIDFORMAT
  1
GRIDFORMAT_BEGIN
 90
        0
 91
        1
 62
     0
 92
       -2
340
0
 93
        0
 40
0.045
309
GRIDFORMAT_END
309
TABLEFORMAT_END
  1
CELLSTYLE_BEGIN
 90
        1
 91
        1
300
_TITLE
309
CELLSTYLE_END
300
CELLSTYLE
  1
TABLEFORMAT_BEGIN
 90
        5
170
     1
 91
        0
 92
        0
 62
   257
 93
        1
300
CONTENTFORMAT
  1
CONTENTFORMAT_BEGIN
 90
        0
 91
        0
 92
      512
 93
        0
300

 40
0.0
140
1.0
 94
        5
 62
     0
340
11
144
4.5
309
CONTENTFORMAT_END
171
     1
301
MARGIN
  1
CELLMARGIN_BEGIN
 40
0.06
 40
0.06
 40
0.06
 40
0.06
 40
0.18
 40
0.18
309
CELLMARGIN_END
 94
        6
 95
        1
302
GRIDFORMAT
  1
GRIDFORMAT_BEGIN
 90
        0
 91
        1
 62
     0
 92
       -2
340
0
 93
        0
 40
0.045
309
GRIDFORMAT_END
 95
        2
302
GRIDFORMAT
  1
GRIDFORMAT_BEGIN
 90
        0
 91
        1
 62
     0
 92
       -2
340
0
 93
        0
 40
0.045
309
GRIDFORMAT_END
 95
        4
302
GRIDFORMAT
  1
GRIDFORMAT_BEGIN
 90
        0
 91
        1
 62
     0
 92
       -2
340
0
 93
        0
 40
0.045
309
GRIDFORMAT_END
 95
        8
302
GRIDFORMAT
  1
GRIDFORMAT_BEGIN
 90
        0
 91
        1
 62
     0
 92
       -2
340
0
 93
        0
 40
0.045
309
GRIDFORMAT_END
 95
       16
302
GRIDFORMAT
  1
GRIDFORMAT_BEGIN
 90
        0
 91
        1
 62
     0
 92
       -2
340
0
 93
        0
 40
0.045
309
GRIDFORMAT_END
 95
       32
302
GRIDFORMAT
  1
GRIDFORMAT_BEGIN
 90
        0
 91
        1
 62
     0
 92
       -2
340
0
 93
        0
 40
0.045
309
GRIDFORMAT_END
309
TABLEFORMAT_END
  1
CELLSTYLE_BEGIN
 90
        2
 91
        1
300
_HEADER
309
CELLSTYLE_END
300
CELLSTYLE
  1
TABLEFORMAT_BEGIN
 90
        5
170
     1
 91
        0
 92
        0
 62
   257
 93
        1
300
CONTENTFORMAT
  1
CONTENTFORMAT_BEGIN
 90
        0
 91
        0
 92
      512
 93
        0
300

 40
0.0
140
1.0
 94
        2
 62
     0
340
11
144
4.5
309
CONTENTFORMAT_END
171
     1
301
MARGIN
  1
CELLMARGIN_BEGIN
 40
0.06
 40
0.06
 40
0.06
 40
0.06
 40
0.18
 40
0.18
309
CELLMARGIN_END
 94
        6
 95
        1
302
GRIDFORMAT
  1
GRIDFORMAT_BEGIN
 90
        0
 91
        1
 62
     0
 92
       -2
340
0
 93
        0
 40
0.045
309
GRIDFORMAT_END
 95
        2
302
GRIDFORMAT
  1
GRIDFORMAT_BEGIN
 90
        0
 91
        1
 62
     0
 92
       -2
340
0
 93
        0
 40
0.045
309
GRIDFORMAT_END
 95
        4
302
GRIDFORMAT
  1
GRIDFORMAT_BEGIN
 90
        0
 91
        1
 62
     0
 92
       -2
340
0
 93
        0
 40
0.045
309
GRIDFORMAT_END
 95
        8
302
GRIDFORMAT
  1
GRIDFORMAT_BEGIN
 90
        0
 91
        1
 62
     0
 92
       -2
340
0
 93
        0
 40
0.045
309
GRIDFORMAT_END
 95
       16
302
GRIDFORMAT
  1
GRIDFORMAT_BEGIN
 90
        0
 91
        1
 62
     0
 92
       -2
340
0
 93
        0
 40
0.045
309
GRIDFORMAT_END
 95
       32
302
GRIDFORMAT
  1
GRIDFORMAT_BEGIN
 90
        0
 91
        1
 62
     0
 92
       -2
340
0
 93
        0
 40
0.045
309
GRIDFORMAT_END
309
TABLEFORMAT_END
  1
CELLSTYLE_BEGIN
 90
        3
 91
        2
300
_DATA
309
CELLSTYLE_END
  0
ENDSEC
  0
EOF
