  0
SECTION
  2
HEADER
  9
$ACADVER
  1
AC1018
  9
$ACADMAINTVER
 70
    39
  9
$DWGCODEPAGE
  3
ANSI_1252
  9
$LASTSAVEDBY
  1
jbowser
  9
$INSBASE
 10
0.0
 20
0.0
 30
0.0
  9
$EXTMIN
 10
0.3140177160829567
 20
-8.643289498598649
 30
0.0
  9
$EXTMAX
 10
5733.452307924405
 20
7.260667100834841
 30
0.0
  9
$LIMMIN
 10
0.0
 20
0.0
  9
$LIMMAX
 10
12.0
 20
9.0
  9
$ORTHOMODE
 70
     0
  9
$REGENMODE
 70
     1
  9
$FILLMODE
 70
     1
  9
$QTEXTMODE
 70
     0
  9
$MIRRTEXT
 70
     0
  9
$LTSCALE
 40
1.0
  9
$ATTMODE
 70
     1
  9
$TEXTSIZE
 40
0.2
  9
$TRACEWID
 40
0.05
  9
$TEXTSTYLE
  7
Standard
  9
$CLAYER
  8
0
  9
$CELTYPE
  6
ByLayer
  9
$CECOLOR
 62
   256
  9
$CELTSCALE
 40
1.0
  9
$DISPSILH
 70
     0
  9
$DIMSCALE
 40
1.0
  9
$DIMASZ
 40
0.18
  9
$DIMEXO
 40
0.0625
  9
$DIMDLI
 40
0.38
  9
$DIMRND
 40
0.0
  9
$DIMDLE
 40
0.0
  9
$DIMEXE
 40
0.18
  9
$DIMTP
 40
0.0
  9
$DIMTM
 40
0.0
  9
$DIMTXT
 40
0.18
  9
$DIMCEN
 40
0.09
  9
$DIMTSZ
 40
0.0
  9
$DIMTOL
 70
     0
  9
$DIMLIM
 70
     0
  9
$DIMTIH
 70
     1
  9
$DIMTOH
 70
     1
  9
$DIMSE1
 70
     0
  9
$DIMSE2
 70
     0
  9
$DIMTAD
 70
     0
  9
$DIMZIN
 70
     0
  9
$DIMBLK
  1

  9
$DIMASO
 70
     1
  9
$DIMSHO
 70
     1
  9
$DIMPOST
  1

  9
$DIMAPOST
  1

  9
$DIMALT
 70
     0
  9
$DIMALTD
 70
     2
  9
$DIMALTF
 40
25.4
  9
$DIMLFAC
 40
1.0
  9
$DIMTOFL
 70
     0
  9
$DIMTVP
 40
0.0
  9
$DIMTIX
 70
     0
  9
$DIMSOXD
 70
     0
  9
$DIMSAH
 70
     0
  9
$DIMBLK1
  1

  9
$DIMBLK2
  1

  9
$DIMSTYLE
  2
Standard
  9
$DIMCLRD
 70
     0
  9
$DIMCLRE
 70
     0
  9
$DIMCLRT
 70
     0
  9
$DIMTFAC
 40
1.0
  9
$DIMGAP
 40
0.09
  9
$DIMJUST
 70
     0
  9
$DIMSD1
 70
     0
  9
$DIMSD2
 70
     0
  9
$DIMTOLJ
 70
     1
  9
$DIMTZIN
 70
     0
  9
$DIMALTZ
 70
     0
  9
$DIMALTTZ
 70
     0
  9
$DIMUPT
 70
     0
  9
$DIMDEC
 70
     4
  9
$DIMTDEC
 70
     4
  9
$DIMALTU
 70
     2
  9
$DIMALTTD
 70
     2
  9
$DIMTXSTY
  7
Standard
  9
$DIMAUNIT
 70
     0
  9
$DIMADEC
 70
     0
  9
$DIMALTRND
 40
0.0
  9
$DIMAZIN
 70
     0
  9
$DIMDSEP
 70
    46
  9
$DIMATFIT
 70
     3
  9
$DIMFRAC
 70
     0
  9
$DIMLDRBLK
  1

  9
$DIMLUNIT
 70
     2
  9
$DIMLWD
 70
    -2
  9
$DIMLWE
 70
    -2
  9
$DIMTMOVE
 70
     0
  9
$LUNITS
 70
     2
  9
$LUPREC
 70
     4
  9
$SKETCHINC
 40
0.1
  9
$FILLETRAD
 40
0.0
  9
$AUNITS
 70
     0
  9
$AUPREC
 70
     0
  9
$MENU
  1
.
  9
$ELEVATION
 40
0.0
  9
$PELEVATION
 40
0.0
  9
$THICKNESS
 40
0.0
  9
$LIMCHECK
 70
     0
  9
$CHAMFERA
 40
0.0
  9
$CHAMFERB
 40
0.0
  9
$CHAMFERC
 40
0.0
  9
$CHAMFERD
 40
0.0
  9
$SKPOLY
 70
     0
  9
$TDCREATE
 40
2455959.565114468
  9
$TDUCREATE
 40
2455959.815114467
  9
$TDUPDATE
 40
2455961.867826783
  9
$TDUUPDATE
 40
2455962.117826782
  9
$TDINDWG
 40
0.5692905440
  9
$TDUSRTIMER
 40
0.5692883796
  9
$USRTIMER
 70
     1
  9
$ANGBASE
 50
0.0
  9
$ANGDIR
 70
     0
  9
$PDMODE
 70
     0
  9
$PDSIZE
 40
0.0
  9
$PLINEWID
 40
0.0
  9
$SPLFRAME
 70
     0
  9
$SPLINETYPE
 70
     6
  9
$SPLINESEGS
 70
     8
  9
$HANDSEED
  5
25E
  9
$SURFTAB1
 70
     6
  9
$SURFTAB2
 70
     6
  9
$SURFTYPE
 70
     6
  9
$SURFU
 70
     6
  9
$SURFV
 70
     6
  9
$UCSBASE
  2

  9
$UCSNAME
  2

  9
$UCSORG
 10
0.0
 20
0.0
 30
0.0
  9
$UCSXDIR
 10
1.0
 20
0.0
 30
0.0
  9
$UCSYDIR
 10
0.0
 20
1.0
 30
0.0
  9
$UCSORTHOREF
  2

  9
$UCSORTHOVIEW
 70
     0
  9
$UCSORGTOP
 10
0.0
 20
0.0
 30
0.0
  9
$UCSORGBOTTOM
 10
0.0
 20
0.0
 30
0.0
  9
$UCSORGLEFT
 10
0.0
 20
0.0
 30
0.0
  9
$UCSORGRIGHT
 10
0.0
 20
0.0
 30
0.0
  9
$UCSORGFRONT
 10
0.0
 20
0.0
 30
0.0
  9
$UCSORGBACK
 10
0.0
 20
0.0
 30
0.0
  9
$PUCSBASE
  2

  9
$PUCSNAME
  2

  9
$PUCSORG
 10
0.0
 20
0.0
 30
0.0
  9
$PUCSXDIR
 10
1.0
 20
0.0
 30
0.0
  9
$PUCSYDIR
 10
0.0
 20
1.0
 30
0.0
  9
$PUCSORTHOREF
  2

  9
$PUCSORTHOVIEW
 70
     0
  9
$PUCSORGTOP
 10
0.0
 20
0.0
 30
0.0
  9
$PUCSORGBOTTOM
 10
0.0
 20
0.0
 30
0.0
  9
$PUCSORGLEFT
 10
0.0
 20
0.0
 30
0.0
  9
$PUCSORGRIGHT
 10
0.0
 20
0.0
 30
0.0
  9
$PUCSORGFRONT
 10
0.0
 20
0.0
 30
0.0
  9
$PUCSORGBACK
 10
0.0
 20
0.0
 30
0.0
  9
$USERI1
 70
     0
  9
$USERI2
 70
     0
  9
$USERI3
 70
     0
  9
$USERI4
 70
     0
  9
$USERI5
 70
     0
  9
$USERR1
 40
0.0
  9
$USERR2
 40
0.0
  9
$USERR3
 40
0.0
  9
$USERR4
 40
0.0
  9
$USERR5
 40
0.0
  9
$WORLDVIEW
 70
     1
  9
$SHADEDGE
 70
     3
  9
$SHADEDIF
 70
    70
  9
$TILEMODE
 70
     1
  9
$MAXACTVP
 70
    64
  9
$PINSBASE
 10
0.0
 20
0.0
 30
0.0
  9
$PLIMCHECK
 70
     0
  9
$PEXTMIN
 10
0.0
 20
0.0
 30
0.0
  9
$PEXTMAX
 10
0.0
 20
0.0
 30
0.0
  9
$PLIMMIN
 10
0.0
 20
0.0
  9
$PLIMMAX
 10
12.0
 20
9.0
  9
$UNITMODE
 70
     0
  9
$VISRETAIN
 70
     1
  9
$PLINEGEN
 70
     0
  9
$PSLTSCALE
 70
     1
  9
$TREEDEPTH
 70
  3020
  9
$CMLSTYLE
  2
Standard
  9
$CMLJUST
 70
     0
  9
$CMLSCALE
 40
1.0
  9
$PROXYGRAPHICS
 70
     1
  9
$MEASUREMENT
 70
     0
  9
$CELWEIGHT
370
    -1
  9
$ENDCAPS
280
     0
  9
$JOINSTYLE
280
     0
  9
$LWDISPLAY
290
     0
  9
$INSUNITS
 70
     1
  9
$HYPERLINKBASE
  1

  9
$STYLESHEET
  1

  9
$XEDIT
290
     1
  9
$CEPSNTYPE
380
     0
  9
$PSTYLEMODE
290
     1
  9
$FINGERPRINTGUID
  2
{6E2EA15C-9AB5-4C8A-90A7-3B37EC7D8A16}
  9
$VERSIONGUID
  2
{0FD23643-6BBD-4611-8405-A05E22C1ED9C}
  9
$EXTNAMES
290
     1
  9
$PSVPSCALE
 40
0.0
  9
$OLESTARTUP
290
     0
  9
$SORTENTS
280
   127
  9
$INDEXCTL
280
     0
  9
$HIDETEXT
280
     1
  9
$XCLIPFRAME
290
     0
  9
$HALOGAP
280
     0
  9
$OBSCOLOR
 70
   257
  9
$OBSLTYPE
280
     0
  9
$INTERSECTIONDISPLAY
280
     0
  9
$INTERSECTIONCOLOR
 70
   257
  9
$DIMASSOC
280
     2
  9
$PROJECTNAME
  1

  0
ENDSEC
  0
SECTION
  2
CLASSES
  0
CLASS
  1
ACDBDICTIONARYWDFLT
  2
AcDbDictionaryWithDefault
  3
ObjectDBX Classes
 90
        0
 91
        1
280
     0
281
     0
  0
CLASS
  1
DICTIONARYVAR
  2
AcDbDictionaryVar
  3
ObjectDBX Classes
 90
        0
 91
        3
280
     0
281
     0
  0
CLASS
  1
TABLESTYLE
  2
AcDbTableStyle
  3
ObjectDBX Classes
 90
     2047
 91
        1
280
     0
281
     0
  0
CLASS
  1
DIMASSOC
  2
AcDbDimAssoc
  3
"AcDbDimAssoc|Product Desc:     AcDim ARX App For Dimension|Company:          Autodesk, Inc.|WEB Address:      www.autodesk.com"
 90
        0
 91
        3
280
     0
281
     0
  0
CLASS
  1
SORTENTSTABLE
  2
AcDbSortentsTable
  3
ObjectDBX Classes
 90
        0
 91
        1
280
     0
281
     0
  0
ENDSEC
  0
SECTION
  2
TABLES
  0
TABLE
  2
VPORT
  5
8
330
0
100
AcDbSymbolTable
 70
     2
  0
VPORT
  5
25D
330
8
100
AcDbSymbolTableRecord
100
AcDbViewportTableRecord
  2
*Active
 70
     0
 10
0.0
 20
0.0
 11
1.0
 21
1.0
 12
8.012957599846352
 22
4.597076622985016
 13
0.0
 23
0.0
 14
0.5
 24
0.5
 15
0.5
 25
0.5
 16
0.0
 26
0.0
 36
1.0
 17
0.0
 27
0.0
 37
0.0
 40
8.513863443785934
 41
1.985166872682323
 42
50.0
 43
0.0
 44
0.0
 50
0.0
 51
0.0
 71
     0
 72
  1000
 73
     1
 74
     3
 75
     0
 76
     0
 77
     0
 78
     0
281
     0
 65
     1
110
0.0
120
0.0
130
0.0
111
1.0
121
0.0
131
0.0
112
0.0
122
1.0
132
0.0
 79
     0
146
0.0
  0
ENDTAB
  0
TABLE
  2
LTYPE
  5
5
330
0
100
AcDbSymbolTable
 70
     1
  0
LTYPE
  5
14
330
5
100
AcDbSymbolTableRecord
100
AcDbLinetypeTableRecord
  2
ByBlock
 70
     0
  3

 72
    65
 73
     0
 40
0.0
  0
LTYPE
  5
15
330
5
100
AcDbSymbolTableRecord
100
AcDbLinetypeTableRecord
  2
ByLayer
 70
     0
  3

 72
    65
 73
     0
 40
0.0
  0
LTYPE
  5
16
330
5
100
AcDbSymbolTableRecord
100
AcDbLinetypeTableRecord
  2
Continuous
 70
     0
  3
Solid line
 72
    65
 73
     0
 40
0.0
  0
ENDTAB
  0
TABLE
  2
LAYER
  5
2
330
0
100
AcDbSymbolTable
 70
     2
  0
LAYER
  5
10
330
2
100
AcDbSymbolTableRecord
100
AcDbLayerTableRecord
  2
0
 70
     0
 62
     7
  6
Continuous
370
    -3
390
F
  0
LAYER
  5
8D
330
2
100
AcDbSymbolTableRecord
100
AcDbLayerTableRecord
  2
Defpoints
 70
     0
 62
     7
  6
Continuous
290
     0
370
    -3
390
F
  0
ENDTAB
  0
TABLE
  2
STYLE
  5
3
330
0
100
AcDbSymbolTable
 70
     1
  0
STYLE
  5
11
330
3
100
AcDbSymbolTableRecord
100
AcDbTextStyleTableRecord
  2
Standard
 70
     0
 40
0.0
 41
1.0
 50
0.0
 71
     0
 42
0.2
  3
txt
  4

  0
ENDTAB
  0
TABLE
  2
VIEW
  5
6
330
0
100
AcDbSymbolTable
 70
     0
  0
ENDTAB
  0
TABLE
  2
UCS
  5
7
330
0
100
AcDbSymbolTable
 70
     0
  0
ENDTAB
  0
TABLE
  2
APPID
  5
9
330
0
100
AcDbSymbolTable
 70
     2
  0
APPID
  5
12
330
9
100
AcDbSymbolTableRecord
100
AcDbRegAppTableRecord
  2
ACAD
 70
     0
  0
APPID
  5
17E
330
9
100
AcDbSymbolTableRecord
100
AcDbRegAppTableRecord
  2
ACAD_PSEXT
 70
     0
  0
ENDTAB
  0
TABLE
  2
DIMSTYLE
  5
A
330
0
100
AcDbSymbolTable
 70
     1
100
AcDbDimStyleTable
 71
     1
340
27
  0
DIMSTYLE
105
27
102
{ACAD_REACTORS
330
8C
330
B4
330
1CC
330
1F0
330
1FE
330
22D
102
}
330
A
100
AcDbSymbolTableRecord
100
AcDbDimStyleTableRecord
  2
Standard
 70
     0
340
11
  0
ENDTAB
  0
TABLE
  2
BLOCK_RECORD
  5
1
330
0
100
AcDbSymbolTable
 70
    10
  0
BLOCK_RECORD
  5
1F
102
{ACAD_XDICTIONARY
360
119
102
}
330
1
100
AcDbSymbolTableRecord
100
AcDbBlockTableRecord
  2
*Model_Space
340
22
  0
BLOCK_RECORD
  5
58
330
1
100
AcDbSymbolTableRecord
100
AcDbBlockTableRecord
  2
*Paper_Space
340
59
  0
BLOCK_RECORD
  5
5D
330
1
100
AcDbSymbolTableRecord
100
AcDbBlockTableRecord
  2
*Paper_Space0
340
5E
  0
BLOCK_RECORD
  5
8E
330
1
100
AcDbSymbolTableRecord
100
AcDbBlockTableRecord
  2
*D1
340
0
  0
BLOCK_RECORD
  5
B5
330
1
100
AcDbSymbolTableRecord
100
AcDbBlockTableRecord
  2
*D2
340
0
  0
BLOCK_RECORD
  5
1CD
330
1
100
AcDbSymbolTableRecord
100
AcDbBlockTableRecord
  2
*D6
340
0
  0
BLOCK_RECORD
  5
1F1
330
1
100
AcDbSymbolTableRecord
100
AcDbBlockTableRecord
  2
*D7
340
0
  0
BLOCK_RECORD
  5
1FF
330
1
100
AcDbSymbolTableRecord
100
AcDbBlockTableRecord
  2
*D8
340
0
  0
BLOCK_RECORD
  5
22E
330
1
100
AcDbSymbolTableRecord
100
AcDbBlockTableRecord
  2
*D9
340
0
  0
ENDTAB
  0
ENDSEC
  0
SECTION
  2
BLOCKS
  0
BLOCK
  5
20
330
1F
100
AcDbEntity
  8
0
100
AcDbBlockBegin
  2
*Model_Space
 70
     0
 10
0.0
 20
0.0
 30
0.0
  3
*Model_Space
  1

  0
ENDBLK
  5
21
330
1F
100
AcDbEntity
  8
0
100
AcDbBlockEnd
  0
BLOCK
  5
5A
330
58
100
AcDbEntity
 67
     1
  8
0
100
AcDbBlockBegin
  2
*Paper_Space
 70
     0
 10
0.0
 20
0.0
 30
0.0
  3
*Paper_Space
  1

  0
ENDBLK
  5
5B
330
58
100
AcDbEntity
 67
     1
  8
0
100
AcDbBlockEnd
  0
BLOCK
  5
5F
330
5D
100
AcDbEntity
  8
0
100
AcDbBlockBegin
  2
*Paper_Space0
 70
     0
 10
0.0
 20
0.0
 30
0.0
  3
*Paper_Space0
  1

  0
ENDBLK
  5
60
330
5D
100
AcDbEntity
  8
0
100
AcDbBlockEnd
  0
BLOCK
  5
97
330
8E
100
AcDbEntity
  8
0
100
AcDbBlockBegin
  2
*D1
 70
     1
 10
0.0
 20
0.0
 30
0.0
  3
*D1
  1

  0
LINE
  5
1A3
330
8E
100
AcDbEntity
  8
0
 62
     0
370
    -2
100
AcDbLine
 10
2.063002117393025
 20
2.708609718761008
 30
0.0
 11
1.883002117393025
 21
2.708609718761008
 31
0.0
  0
LINE
  5
1A4
330
8E
100
AcDbEntity
  8
0
 62
     0
370
    -2
100
AcDbLine
 10
1.883002117393025
 20
2.708609718761008
 30
0.0
 11
1.531142759816078
 21
2.351891536326605
 31
0.0
  0
MTEXT
  5
1A5
330
8E
100
AcDbEntity
  8
0
 62
     0
100
AcDbMText
 10
2.633002117393025
 20
2.708609718761008
 30
0.0
 40
0.18
 41
0.0
 71
     5
 72
     1
  1
\A1;\U+22051.2815
 73
     1
 44
1.0
  0
SOLID
  5
1A6
330
8E
100
AcDbEntity
  8
0
 62
     0
100
AcDbTrace
 10
1.50978459632174
 20
2.372958782282096
 30
0.0
 11
1.552500923310416
 21
2.330824290371115
 31
0.0
 12
1.404739284083134
 22
2.223742555360578
 32
0.0
 13
1.404739284083134
 23
2.223742555360578
 33
0.0
  0
LINE
  5
1A7
330
8E
100
AcDbEntity
  8
0
 62
     0
370
    -2
100
AcDbLine
 10
0.8647737707275517
 20
1.767563469524373
 30
0.0
 11
1.044773770727551
 21
1.767563469524373
 31
0.0
  0
LINE
  5
1A8
330
8E
100
AcDbEntity
  8
0
 62
     0
370
    -2
100
AcDbLine
 10
0.9547737707275519
 20
1.677563469524373
 30
0.0
 11
0.9547737707275516
 21
1.857563469524373
 31
0.0
  0
POINT
  5
1A9
330
8E
100
AcDbEntity
  8
Defpoints
 62
     0
100
AcDbPoint
 10
1.404739284083134
 20
2.223742555360578
 30
0.0
  0
POINT
  5
1AA
330
8E
100
AcDbEntity
  8
Defpoints
 62
     0
100
AcDbPoint
 10
0.5048082573719693
 20
1.311384383688168
 30
0.0
  0
ENDBLK
  5
98
330
8E
100
AcDbEntity
  8
0
100
AcDbBlockEnd
  0
BLOCK
  5
BE
330
B5
100
AcDbEntity
  8
0
100
AcDbBlockBegin
  2
*D2
 70
     1
 10
0.0
 20
0.0
 30
0.0
  3
*D2
  1

  0
LINE
  5
1AB
330
B5
100
AcDbEntity
  8
0
 62
     0
370
    -2
100
AcDbLine
 10
2.07147110545734
 20
2.313908293559808
 30
0.0
 11
1.891471105457333
 21
2.313908293559808
 31
0.0
  0
LINE
  5
1AC
330
B5
100
AcDbEntity
  8
0
 62
     0
370
    -2
100
AcDbLine
 10
1.891471105457333
 20
2.313908293559808
 30
0.0
 11
1.643314752736473
 21
2.169413419405726
 31
0.0
  0
MTEXT
  5
1AD
330
B5
100
AcDbEntity
  8
0
 62
     0
100
AcDbMText
 10
2.65647110545734
 20
2.313908293559808
 30
0.0
 40
0.18
 41
0.0
 71
     5
 72
     1
  1
\A1;\U+22051.2340
 73
     1
 44
1.0
  0
SOLID
  5
1AE
330
B5
100
AcDbEntity
  8
0
 62
     0
100
AcDbTrace
 10
1.628219126837397
 20
2.195338736736766
 30
0.0
 11
1.658410378635549
 21
2.143488102074686
 31
0.0
 12
1.487762848750231
 22
2.078839664011268
 32
0.0
 13
1.487762848750231
 23
2.078839664011268
 33
0.0
  0
LINE
  5
1AF
330
B5
100
AcDbEntity
  8
0
 62
     0
370
    -2
100
AcDbLine
 10
0.8645654889751719
 20
1.768372958020268
 30
0.0
 11
1.044565488975172
 21
1.768372958020268
 31
0.0
  0
LINE
  5
1B0
330
B5
100
AcDbEntity
  8
0
 62
     0
370
    -2
100
AcDbLine
 10
0.954565488975172
 20
1.678372958020268
 30
0.0
 11
0.9545654889751721
 21
1.858372958020268
 31
0.0
  0
POINT
  5
1B1
330
B5
100
AcDbEntity
  8
Defpoints
 62
     0
100
AcDbPoint
 10
1.487762848750231
 20
2.078839664011268
 30
0.0
  0
POINT
  5
1B2
330
B5
100
AcDbEntity
  8
Defpoints
 62
     0
100
AcDbPoint
 10
0.4213681292001123
 20
1.457906252029267
 30
0.0
  0
ENDBLK
  5
BF
330
B5
100
AcDbEntity
  8
0
100
AcDbBlockEnd
  0
BLOCK
  5
1D5
330
1CD
100
AcDbEntity
  8
0
100
AcDbBlockBegin
  2
*D6
 70
     1
 10
0.0
 20
0.0
 30
0.0
  3
*D6
  1

  0
LINE
  5
1E0
330
1CD
100
AcDbEntity
  8
0
 62
     0
370
    -2
100
AcDbLine
 10
3.079803588622377
 20
1.511375902095118
 30
0.0
 11
3.449568660902262
 21
1.52690485742473
 31
0.0
  0
MTEXT
  5
1E1
330
1CD
100
AcDbEntity
  8
0
 62
     0
100
AcDbMText
 10
2.479803588622377
 20
1.511375902095118
 30
0.0
 40
0.18
 41
0.0
 71
     5
 72
     1
  1
\A1;R5.1354
 73
     1
 44
1.0
  0
SOLID
  5
1E2
330
1CD
100
AcDbEntity
  8
0
 62
     0
100
AcDbTrace
 10
3.448309866052249
 20
1.556878436382298
 30
0.0
 11
3.450827455752276
 21
1.496931278467162
 31
0.0
 12
3.629410134647672
 22
1.534457626524809
 32
0.0
 13
3.629410134647672
 23
1.534457626524809
 33
0.0
  0
LINE
  5
1E3
330
1CD
100
AcDbEntity
  8
0
 62
     0
370
    -2
100
AcDbLine
 10
8.670264675476134
 20
1.749937175406997
 30
0.0
 11
8.850264675476134
 21
1.749937175406997
 31
0.0
  0
LINE
  5
1E4
330
1CD
100
AcDbEntity
  8
0
 62
     0
370
    -2
100
AcDbLine
 10
8.760264675476134
 20
1.659937175406997
 30
0.0
 11
8.760264675476136
 21
1.839937175406998
 31
0.0
  0
POINT
  5
1E5
330
1CD
100
AcDbEntity
  8
Defpoints
 62
     0
100
AcDbPoint
 10
3.629410134647672
 20
1.534457626524809
 30
0.0
  0
POINT
  5
1E6
330
1CD
100
AcDbEntity
  8
Defpoints
 62
     0
100
AcDbPoint
 10
8.760264675476134
 20
1.749937175406997
 30
0.0
  0
ENDBLK
  5
1D6
330
1CD
100
AcDbEntity
  8
0
100
AcDbBlockEnd
  0
BLOCK
  5
1FC
330
1F1
100
AcDbEntity
  8
0
100
AcDbBlockBegin
  2
*D7
 70
     1
 10
0.0
 20
0.0
 30
0.0
  3
*D7
  1

  0
LINE
  5
1F2
330
1F1
100
AcDbEntity
  8
0
 62
     0
370
    -2
100
AcDbLine
 10
3.663616030826361
 20
1.072818158270145
 30
0.0
 11
3.663616030826361
 21
0.5602179091385205
 31
0.0
  0
LINE
  5
1F3
330
1F1
100
AcDbEntity
  8
0
 62
     0
370
    -2
100
AcDbLine
 10
3.794095938676349
 20
1.072818158270145
 30
0.0
 11
3.794095938676349
 21
0.5602179091385205
 31
0.0
  0
LINE
  5
1F4
330
1F1
100
AcDbEntity
  8
0
 62
     0
370
    -2
100
AcDbLine
 10
3.483616030826361
 20
0.7402179091385204
 30
0.0
 11
3.303616030826361
 21
0.7402179091385204
 31
0.0
  0
LINE
  5
1F5
330
1F1
100
AcDbEntity
  8
0
 62
     0
370
    -2
100
AcDbLine
 10
3.974095938676349
 20
0.7402179091385204
 30
0.0
 11
4.154095938676349
 21
0.7402179091385204
 31
0.0
  0
SOLID
  5
1F6
330
1F1
100
AcDbEntity
  8
0
 62
     0
100
AcDbTrace
 10
3.483616030826361
 20
0.7702179091385205
 30
0.0
 11
3.483616030826361
 21
0.7102179091385203
 31
0.0
 12
3.663616030826361
 22
0.7402179091385204
 32
0.0
 13
3.663616030826361
 23
0.7402179091385204
 33
0.0
  0
SOLID
  5
1F7
330
1F1
100
AcDbEntity
  8
0
 62
     0
100
AcDbTrace
 10
3.974095938676349
 20
0.7702179091385205
 30
0.0
 11
3.974095938676349
 21
0.7102179091385203
 31
0.0
 12
3.794095938676349
 22
0.7402179091385204
 32
0.0
 13
3.794095938676349
 23
0.7402179091385204
 33
0.0
  0
MTEXT
  5
1F8
330
1F1
100
AcDbEntity
  8
0
 62
     0
100
AcDbMText
 10
4.634095938676349
 20
0.7402179091385204
 30
0.0
 40
0.18
 41
0.0
 71
     5
 72
     1
  1
\A1;0.1305
 73
     1
 44
1.0
  0
POINT
  5
1F9
330
1F1
100
AcDbEntity
  8
Defpoints
 62
     0
100
AcDbPoint
 10
3.663616030826361
 20
1.135318158270145
 30
0.0
  0
POINT
  5
1FA
330
1F1
100
AcDbEntity
  8
Defpoints
 62
     0
100
AcDbPoint
 10
3.794095938676349
 20
1.135318158270145
 30
0.0
  0
POINT
  5
1FB
330
1F1
100
AcDbEntity
  8
Defpoints
 62
     0
100
AcDbPoint
 10
3.794095938676349
 20
0.7402179091385204
 30
0.0
  0
ENDBLK
  5
1FD
330
1F1
100
AcDbEntity
  8
0
100
AcDbBlockEnd
  0
BLOCK
  5
20A
330
1FF
100
AcDbEntity
  8
0
100
AcDbBlockBegin
  2
*D8
 70
     1
 10
0.0
 20
0.0
 30
0.0
  3
*D8
  1

  0
LINE
  5
217
330
1FF
100
AcDbEntity
  8
0
 62
     0
370
    -2
100
AcDbLine
 10
3.794066877638613
 20
2.470554413851637
 30
0.0
 11
3.794066877638613
 21
3.426411715705684
 31
0.0
  0
LINE
  5
218
330
1FF
100
AcDbEntity
  8
0
 62
     0
370
    -2
100
AcDbLine
 10
3.626004426495967
 20
2.319151106106073
 30
0.0
 11
3.626004426495967
 21
3.426411715705684
 31
0.0
  0
LINE
  5
219
330
1FF
100
AcDbEntity
  8
0
 62
     0
370
    -2
100
AcDbLine
 10
3.446004426495967
 20
3.246411715705685
 30
0.0
 11
3.266004426495967
 21
3.246411715705685
 31
0.0
  0
LINE
  5
21A
330
1FF
100
AcDbEntity
  8
0
 62
     0
370
    -2
100
AcDbLine
 10
3.974066877638613
 20
3.246411715705685
 30
0.0
 11
4.184066877638612
 21
3.246411715705685
 31
0.0
  0
SOLID
  5
21B
330
1FF
100
AcDbEntity
  8
0
 62
     0
100
AcDbTrace
 10
3.446004426495967
 20
3.276411715705684
 30
0.0
 11
3.446004426495967
 21
3.216411715705685
 31
0.0
 12
3.626004426495967
 22
3.246411715705685
 32
0.0
 13
3.626004426495967
 23
3.246411715705685
 33
0.0
  0
SOLID
  5
21C
330
1FF
100
AcDbEntity
  8
0
 62
     0
100
AcDbTrace
 10
3.974066877638613
 20
3.276411715705684
 30
0.0
 11
3.974066877638613
 21
3.216411715705685
 31
0.0
 12
3.794066877638613
 22
3.246411715705685
 32
0.0
 13
3.794066877638613
 23
3.246411715705685
 33
0.0
  0
MTEXT
  5
21D
330
1FF
100
AcDbEntity
  8
0
 62
     0
100
AcDbMText
 10
4.649066877638612
 20
3.246411715705685
 30
0.0
 40
0.18
 41
0.0
 71
     5
 72
     1
  1
\A1;0.1681
 73
     1
 44
1.0
  0
POINT
  5
21E
330
1FF
100
AcDbEntity
  8
Defpoints
 62
     0
100
AcDbPoint
 10
3.794066877638613
 20
2.408054413851637
 30
0.0
  0
POINT
  5
21F
330
1FF
100
AcDbEntity
  8
Defpoints
 62
     0
100
AcDbPoint
 10
3.626004426495967
 20
2.256651106106073
 30
0.0
  0
POINT
  5
220
330
1FF
100
AcDbEntity
  8
Defpoints
 62
     0
100
AcDbPoint
 10
3.626004426495967
 20
3.246411715705685
 30
0.0
  0
ENDBLK
  5
20B
330
1FF
100
AcDbEntity
  8
0
100
AcDbBlockEnd
  0
BLOCK
  5
236
330
22E
100
AcDbEntity
  8
0
100
AcDbBlockBegin
  2
*D9
 70
     1
 10
0.0
 20
0.0
 30
0.0
  3
*D9
  1

  0
LINE
  5
239
330
22E
100
AcDbEntity
  8
0
 62
     0
370
    -2
100
AcDbLine
 10
2.509913905970151
 20
7.159405610459426
 30
0.0
 11
3.388883341686953
 21
7.103449864525265
 31
0.0
  0
MTEXT
  5
23A
330
22E
100
AcDbEntity
  8
0
 62
     0
100
AcDbMText
 10
1.894913905970151
 20
7.159405610459426
 30
0.0
 40
0.18
 41
0.0
 71
     5
 72
     1
  1
\A1;R7.9402
 73
     1
 44
1.0
  0
SOLID
  5
23B
330
22E
100
AcDbEntity
  8
0
 62
     0
100
AcDbTrace
 10
3.390789302300593
 20
7.133389258542834
 30
0.0
 11
3.386977381073312
 21
7.073510470507695
 31
0.0
 12
3.568519705792367
 22
7.092014100843423
 32
0.0
 13
3.568519705792367
 23
7.092014100843423
 33
0.0
  0
LINE
  5
23C
330
22E
100
AcDbEntity
  8
0
 62
     0
370
    -2
100
AcDbLine
 10
11.40269633715829
 20
6.587556043140271
 30
0.0
 11
11.58269633715829
 21
6.587556043140271
 31
0.0
  0
LINE
  5
23D
330
22E
100
AcDbEntity
  8
0
 62
     0
370
    -2
100
AcDbLine
 10
11.49269633715829
 20
6.497556043140271
 30
0.0
 11
11.49269633715829
 21
6.677556043140271
 31
0.0
  0
POINT
  5
23E
330
22E
100
AcDbEntity
  8
Defpoints
 62
     0
100
AcDbPoint
 10
3.568519705792367
 20
7.092014100843423
 30
0.0
  0
POINT
  5
23F
330
22E
100
AcDbEntity
  8
Defpoints
 62
     0
100
AcDbPoint
 10
11.49269633715829
 20
6.587556043140271
 30
0.0
  0
ENDBLK
  5
237
330
22E
100
AcDbEntity
  8
0
100
AcDbBlockEnd
  0
ENDSEC
  0
SECTION
  2
ENTITIES
  0
CIRCLE
  5
8B
102
{ACAD_REACTORS
330
A2
102
}
330
1F
100
AcDbEntity
  8
0
100
AcDbCircle
 10
0.9547737707275523
 20
1.767563469524374
 30
0.0
 40
0.6407560546445957
  0
DIMENSION
  5
8C
102
{ACAD_XDICTIONARY
360
99
102
}
102
{ACAD_REACTORS
330
A2
102
}
330
1F
100
AcDbEntity
  8
0
100
AcDbDimension
  2
*D1
 10
0.5048082573719693
 20
1.311384383688168
 30
0.0
 11
2.633002117393025
 21
2.708609718761008
 31
0.0
 70
   163
 71
     5
 42
1.281512109289193
  3
Standard
100
AcDbDiametricDimension
 15
1.404739284083134
 25
2.223742555360578
 35
0.0
 40
0.0
1001
ACAD
1000
DSTYLE
1002
{
1070
   288
1070
     1
1002
}
  0
CIRCLE
  5
B3
102
{ACAD_REACTORS
330
C9
102
}
330
1F
100
AcDbEntity
  8
0
100
AcDbCircle
 10
0.9545654889751702
 20
1.768372958020266
 30
0.0
 40
0.617
  0
DIMENSION
  5
B4
102
{ACAD_XDICTIONARY
360
C0
102
}
102
{ACAD_REACTORS
330
C9
102
}
330
1F
100
AcDbEntity
  8
0
100
AcDbDimension
  2
*D2
 10
0.4213681292001123
 20
1.457906252029267
 30
0.0
 11
2.65647110545734
 21
2.313908293559808
 31
0.0
 70
   163
 71
     5
 42
1.233999999999995
  3
Standard
100
AcDbDiametricDimension
 15
1.487762848750231
 25
2.078839664011268
 35
0.0
 40
0.0
1001
ACAD
1000
DSTYLE
1002
{
1070
   288
1070
     1
1002
}
  0
LINE
  5
CE
330
1F
100
AcDbEntity
  8
0
100
AcDbLine
 10
3.793526995118334
 20
1.76804956600367
 30
0.0
 11
3.794077405015009
 21
2.408502649223878
 31
0.0
  0
LINE
  5
CF
330
1F
100
AcDbEntity
  8
0
100
AcDbLine
 10
3.793911710686252
 20
2.408405052113979
 30
0.0
 11
3.669969940320704
 21
2.408371959437126
 31
0.0
  0
LINE
  5
11C
330
1F
100
AcDbEntity
  8
0
100
AcDbLine
 10
3.697748771437098
 20
2.384963722490478
 30
0.0
 11
3.794028725173163
 21
2.384963722490478
 31
0.0
  0
LINE
  5
11D
330
1F
100
AcDbEntity
  8
0
100
AcDbLine
 10
3.793526995118334
 20
1.775590903873082
 30
0.0
 11
3.794077405015009
 21
1.135137820652873
 31
0.0
  0
LINE
  5
11E
330
1F
100
AcDbEntity
  8
0
100
AcDbLine
 10
3.793911710686252
 20
1.135235417762773
 30
0.0
 11
3.663410343843196
 21
1.135231068544825
 31
0.0
  0
LINE
  5
121
330
1F
100
AcDbEntity
  8
0
100
AcDbLine
 10
3.692776932099327
 20
1.158629395536353
 30
0.0
 11
3.794027358831428
 21
1.158651095795585
 31
0.0
  0
DIMENSION
  5
1CC
330
1F
100
AcDbEntity
  8
0
100
AcDbDimension
  2
*D6
 10
8.760264675476134
 20
1.749937175406997
 30
0.0
 11
3.079803588622377
 21
1.511375902095118
 31
0.0
 70
   164
 71
     5
 42
5.135377274857857
  3
Standard
100
AcDbRadialDimension
 15
3.629410134647672
 25
1.534457626524809
 35
0.0
 40
0.0
1001
ACAD
1000
DSTYLE
1002
{
1070
   288
1070
     1
1002
}
  0
ARC
  5
1EB
330
1F
100
AcDbEntity
  8
0
100
AcDbCircle
 10
8.754838990894157
 20
1.745763531452052
 30
0.0
 40
5.127906408523511
100
AcDbArc
 50
191.9811321890153
 51
192.0363316364699
  0
ARC
  5
1EC
330
1F
100
AcDbEntity
  8
0
100
AcDbCircle
 10
8.754658882471057
 20
1.745775675813526
 30
0.0
 40
5.127726240698232
100
AcDbArc
 50
172.57616010647
 51
186.8382778792014
  0
ARC
  5
1EE
330
1F
100
AcDbEntity
  8
0
100
AcDbCircle
 10
8.788394136810971
 20
1.751669111486206
 30
0.0
 40
5.129868433071847
100
AcDbArc
 50
187.1928734754278
 51
187.2002605989824
  0
ARC
  5
1EF
330
1F
100
AcDbEntity
  8
0
100
AcDbCircle
 10
8.788394136810971
 20
1.751669111486206
 30
0.0
 40
5.129868433071847
100
AcDbArc
 50
172.9086315955661
 51
186.6378338365314
  0
DIMENSION
  5
1F0
330
1F
100
AcDbEntity
  8
0
100
AcDbDimension
  2
*D7
 10
3.794095938676349
 20
0.7402179091385204
 30
0.0
 11
4.634095938676349
 21
0.7402179091385204
 31
0.0
 70
    32
 71
     5
 42
0.1304799078499883
  3
Standard
100
AcDbAlignedDimension
 13
3.663616030826361
 23
1.135318158270145
 33
0.0
 14
3.794095938676349
 24
1.135318158270145
 34
0.0
100
AcDbRotatedDimension
  0
DIMENSION
  5
1FE
330
1F
100
AcDbEntity
  8
0
100
AcDbDimension
  2
*D8
 10
3.626004426495967
 20
3.246411715705685
 30
0.0
 11
4.649066877638612
 21
3.246411715705685
 31
0.0
 70
   160
 71
     5
 42
0.1680624511426458
  3
Standard
100
AcDbAlignedDimension
 13
3.794066877638613
 23
2.408054413851637
 33
0.0
 14
3.626004426495967
 24
2.256651106106073
 34
0.0
100
AcDbRotatedDimension
  0
LINE
  5
222
330
1F
100
AcDbEntity
  8
0
100
AcDbLine
 10
3.704605369708836
 20
6.620196344914541
 30
0.0
 11
3.705155779605512
 21
7.260649428134749
 31
0.0
  0
LINE
  5
223
330
1F
100
AcDbEntity
  8
0
100
AcDbLine
 10
3.704990085276754
 20
7.26055183102485
 30
0.0
 11
3.581048314911207
 21
7.260518738347997
 31
0.0
  0
LINE
  5
224
330
1F
100
AcDbEntity
  8
0
100
AcDbLine
 10
3.6088271460276
 20
7.23711050140135
 30
0.0
 11
3.705107099763665
 21
7.23711050140135
 31
0.0
  0
LINE
  5
225
330
1F
100
AcDbEntity
  8
0
100
AcDbLine
 10
3.704605369708836
 20
6.627737682783953
 30
0.0
 11
3.705155779605512
 21
5.987284599563745
 31
0.0
  0
LINE
  5
226
330
1F
100
AcDbEntity
  8
0
100
AcDbLine
 10
3.704990085276754
 20
5.987382196673644
 30
0.0
 11
3.574488718433698
 21
5.987377847455697
 31
0.0
  0
LINE
  5
227
330
1F
100
AcDbEntity
  8
0
100
AcDbLine
 10
3.60385530668983
 20
6.010776174447224
 30
0.0
 11
3.70510573342193
 21
6.010797874706456
 31
0.0
  0
ARC
  5
22C
102
{ACAD_REACTORS
330
240
102
}
330
1F
100
AcDbEntity
  8
0
100
AcDbCircle
 10
11.49269633715832
 20
6.587556043140281
 30
0.0
 40
7.940217454016478
100
AcDbArc
 50
175.137927814901
 51
184.3267050754997
  0
DIMENSION
  5
22D
102
{ACAD_XDICTIONARY
360
238
102
}
102
{ACAD_REACTORS
330
240
102
}
330
1F
100
AcDbEntity
  8
0
100
AcDbDimension
  2
*D9
 10
11.49269633715829
 20
6.587556043140271
 30
0.0
 11
2.509913905970151
 21
7.159405610459426
 31
0.0
 70
   164
 71
     5
 42
7.940217454016448
  3
Standard
100
AcDbRadialDimension
 15
3.568519705792367
 25
7.092014100843423
 35
0.0
 40
0.0
1001
ACAD
1000
DSTYLE
1002
{
1070
   288
1070
     1
1002
}
  0
CIRCLE
  5
241
330
1F
100
AcDbEntity
  8
0
100
AcDbCircle
 10
5725.512107924405
 20
-0.703089498598649
 30
0.0
 40
7.940199999999999
  0
ARC
  5
242
330
1F
100
AcDbEntity
  8
0
100
AcDbCircle
 10
11.50856833370264
 20
6.585370900859439
 30
0.0
 40
7.927485331102116
100
AcDbArc
 50
185.7418465394287
 51
185.7433379625492
  0
ARC
  5
243
330
1F
100
AcDbEntity
  8
0
100
AcDbCircle
 10
11.50856833370264
 20
6.585370900859439
 30
0.0
 40
7.927485331102116
100
AcDbArc
 50
185.3743572273938
 51
185.3757532277564
  0
ARC
  5
245
330
1F
100
AcDbEntity
  8
0
100
AcDbCircle
 10
11.50856833370264
 20
6.585370900859439
 30
0.0
 40
7.927485331102116
100
AcDbArc
 50
175.2858319093825
 51
184.1556894030411
  0
ENDSEC
  0
SECTION
  2
OBJECTS
  0
DICTIONARY
  5
C
330
0
100
AcDbDictionary
281
     1
  3
ACAD_COLOR
350
73
  3
ACAD_GROUP
350
D
  3
ACAD_LAYOUT
350
1A
  3
ACAD_MATERIAL
350
72
  3
ACAD_MLINESTYLE
350
17
  3
ACAD_PLOTSETTINGS
350
19
  3
ACAD_PLOTSTYLENAME
350
E
  3
ACAD_TABLESTYLE
350
86
  3
AcDbVariableDictionary
350
66
  0
DICTIONARY
  5
119
330
1F
100
AcDbDictionary
280
     1
281
     1
  3
ACAD_SORTENTS
360
11A
  0
DICTIONARY
  5
99
330
8C
100
AcDbDictionary
280
     1
281
     1
  3
ACAD_DIMASSOC
360
A2
  0
DICTIONARY
  5
C0
330
B4
100
AcDbDictionary
280
     1
281
     1
  3
ACAD_DIMASSOC
360
C9
  0
DICTIONARY
  5
238
330
22D
100
AcDbDictionary
280
     1
281
     1
  3
ACAD_DIMASSOC
360
240
  0
DICTIONARY
  5
73
102
{ACAD_REACTORS
330
C
102
}
330
C
100
AcDbDictionary
281
     1
  0
DICTIONARY
  5
D
102
{ACAD_REACTORS
330
C
102
}
330
C
100
AcDbDictionary
281
     1
  0
DICTIONARY
  5
1A
102
{ACAD_REACTORS
330
C
102
}
330
C
100
AcDbDictionary
281
     1
  3
Layout1
350
59
  3
Layout2
350
5E
  3
Model
350
22
  0
DICTIONARY
  5
72
102
{ACAD_REACTORS
330
C
102
}
330
C
100
AcDbDictionary
281
     1
  0
DICTIONARY
  5
17
102
{ACAD_REACTORS
330
C
102
}
330
C
100
AcDbDictionary
281
     1
  3
Standard
350
18
  0
DICTIONARY
  5
19
102
{ACAD_REACTORS
330
C
102
}
330
C
100
AcDbDictionary
281
     1
  0
ACDBDICTIONARYWDFLT
  5
E
102
{ACAD_REACTORS
330
C
102
}
330
C
100
AcDbDictionary
281
     1
  3
Normal
350
F
100
AcDbDictionaryWithDefault
340
F
  0
DICTIONARY
  5
86
102
{ACAD_REACTORS
330
C
102
}
330
C
100
AcDbDictionary
281
     1
  3
Standard
350
87
  0
DICTIONARY
  5
66
102
{ACAD_REACTORS
330
C
102
}
330
C
100
AcDbDictionary
281
     1
  3
CTABLESTYLE
350
F3
  3
DIMASSOC
350
67
  3
HIDETEXT
350
6B
  0
SORTENTSTABLE
  5
11A
102
{ACAD_REACTORS
330
119
102
}
330
119
100
AcDbSortentsTable
330
1F
331
1EC
  5
1EC
331
B4
  5
B4
331
227
  5
227
331
1EE
  5
1EE
331
1F0
  5
1F0
331
22D
  5
22D
331
8C
  5
8C
331
CF
  5
11B
331
11C
  5
11E
331
1CC
  5
1CC
331
11E
  5
120
331
242
  5
242
331
222
  5
222
331
224
  5
224
331
B3
  5
B3
331
1EB
  5
1EB
331
226
  5
226
331
1EF
  5
1EF
331
22C
  5
22C
331
1FE
  5
1FE
331
8B
  5
8B
331
CE
  5
118
331
11D
  5
11F
331
121
  5
131
331
241
  5
241
331
243
  5
245
331
223
  5
223
331
245
  5
243
331
225
  5
225
  0
DIMASSOC
  5
A2
102
{ACAD_REACTORS
330
99
102
}
330
99
100
AcDbDimAssoc
330
8C
 90
        2
 70
     0
 71
     0
  1
AcDbOsnapPointRef
 72
     3
331
8B
 73
     2
 91
        0
 40
0.0
 10
0.0
 20
0.0
 30
0.0
 75
     0
  0
DIMASSOC
  5
C9
102
{ACAD_REACTORS
330
C0
102
}
330
C0
100
AcDbDimAssoc
330
B4
 90
        2
 70
     0
 71
     0
  1
AcDbOsnapPointRef
 72
     3
331
B3
 73
     2
 91
        0
 40
0.0
 10
0.0
 20
0.0
 30
0.0
 75
     0
  0
DIMASSOC
  5
240
102
{ACAD_REACTORS
330
238
102
}
330
238
100
AcDbDimAssoc
330
22D
 90
        2
 70
     0
 71
     0
  1
AcDbOsnapPointRef
 72
     3
331
22C
 73
     2
 91
        0
 40
0.0
 10
0.0
 20
0.0
 30
0.0
 75
     0
  0
LAYOUT
  5
59
102
{ACAD_REACTORS
330
1A
102
}
330
1A
100
AcDbPlotSettings
  1

  2
None
  4

  6

 40
0.0
 41
0.0
 42
0.0
 43
0.0
 44
0.0
 45
0.0
 46
0.0
 47
0.0
 48
0.0
 49
0.0
140
0.0
141
0.0
142
1.0
143
1.0
 70
   688
 72
     0
 73
     0
 74
     5
  7

 75
    16
147
1.0
 76
     0
 77
     2
 78
   300
148
0.0
149
0.0
100
AcDbLayout
  1
Layout1
 70
     1
 71
     1
 10
0.0
 20
0.0
 11
12.0
 21
9.0
 12
0.0
 22
0.0
 32
0.0
 14
0.0
 24
0.0
 34
0.0
 15
0.0
 25
0.0
 35
0.0
146
0.0
 13
0.0
 23
0.0
 33
0.0
 16
1.0
 26
0.0
 36
0.0
 17
0.0
 27
1.0
 37
0.0
 76
     0
330
58
  0
LAYOUT
  5
5E
102
{ACAD_REACTORS
330
1A
102
}
330
1A
100
AcDbPlotSettings
  1

  2
None
  4

  6

 40
0.0
 41
0.0
 42
0.0
 43
0.0
 44
0.0
 45
0.0
 46
0.0
 47
0.0
 48
0.0
 49
0.0
140
0.0
141
0.0
142
1.0
143
1.0
 70
   688
 72
     0
 73
     0
 74
     5
  7

 75
    16
147
1.0
 76
     0
 77
     2
 78
   300
148
0.0
149
0.0
100
AcDbLayout
  1
Layout2
 70
     1
 71
     2
 10
0.0
 20
0.0
 11
12.0
 21
9.0
 12
0.0
 22
0.0
 32
0.0
 14
0.0
 24
0.0
 34
0.0
 15
0.0
 25
0.0
 35
0.0
146
0.0
 13
0.0
 23
0.0
 33
0.0
 16
1.0
 26
0.0
 36
0.0
 17
0.0
 27
1.0
 37
0.0
 76
     0
330
5D
  0
LAYOUT
  5
22
102
{ACAD_REACTORS
330
1A
102
}
330
1A
100
AcDbPlotSettings
  1

  2
Brother MFC-6890CDW Printer (Copy 1)
  4
Letter
  6

 40
3.757083177566528
 41
3.841763257980346
 42
3.841751098632812
 43
3.757080078125
 44
215.8999938964844
 45
279.3999938964844
 46
-3.975485925938853
 47
-78.74770849255053
 48
0.0
 49
0.0
140
0.0
141
0.0
142
1.0
143
1.0
 70
 11956
 72
     0
 73
     1
 74
     0
  7

 75
    16
147
1.0
 76
     0
 77
     2
 78
   300
148
11.11916073664269
149
-8.639680487738054
100
AcDbLayout
  1
Model
 70
     1
 71
     0
 10
0.0
 20
0.0
 11
12.0
 21
9.0
 12
0.0
 22
0.0
 32
0.0
 14
0.0
 24
0.0
 34
0.0
 15
0.0
 25
0.0
 35
0.0
146
0.0
 13
0.0
 23
0.0
 33
0.0
 16
1.0
 26
0.0
 36
0.0
 17
0.0
 27
1.0
 37
0.0
 76
     0
330
1F
1001
ACAD_PSEXT
1000
Brother MFC-6890CDW Printer (Copy 1)
1000
Brother MFC-6890CDW Printer
1000
BRN001BA90D7167
1000
MFC-6890CDW LAN#2
1070
     0
  0
MLINESTYLE
  5
18
102
{ACAD_REACTORS
330
17
102
}
330
17
100
AcDbMlineStyle
  2
STANDARD
 70
     0
  3

 62
   256
 51
90.0
 52
90.0
 71
     2
 49
0.5
 62
   256
  6
BYLAYER
 49
-0.5
 62
   256
  6
BYLAYER
  0
ACDBPLACEHOLDER
  5
F
102
{ACAD_REACTORS
330
E
102
}
330
E
  0
TABLESTYLE
  5
87
102
{ACAD_REACTORS
330
86
102
}
330
86
100
AcDbTableStyle
  3
Standard
 70
     0
 71
     0
 40
0.06
 41
0.06
280
     0
281
     0
  7
Standard
140
0.18
170
     2
 62
     0
 63
     7
283
     0
274
    -2
284
     1
 64
     0
275
    -2
285
     1
 65
     0
276
    -2
286
     1
 66
     0
277
    -2
287
     1
 67
     0
278
    -2
288
     1
 68
     0
279
    -2
289
     1
 69
     0
  7
Standard
140
0.25
170
     5
 62
     0
 63
     7
283
     0
274
    -2
284
     1
 64
     0
275
    -2
285
     1
 65
     0
276
    -2
286
     1
 66
     0
277
    -2
287
     1
 67
     0
278
    -2
288
     1
 68
     0
279
    -2
289
     1
 69
     0
  7
Standard
140
0.18
170
     5
 62
     0
 63
     7
283
     0
274
    -2
284
     1
 64
     0
275
    -2
285
     1
 65
     0
276
    -2
286
     1
 66
     0
277
    -2
287
     1
 67
     0
278
    -2
288
     1
 68
     0
279
    -2
289
     1
 69
     0
  0
DICTIONARYVAR
  5
F3
102
{ACAD_REACTORS
330
66
102
}
330
66
100
DictionaryVariables
280
     0
  1
STANDARD
  0
DICTIONARYVAR
  5
67
102
{ACAD_REACTORS
330
66
102
}
330
66
100
DictionaryVariables
280
     0
  1
2
  0
DICTIONARYVAR
  5
6B
102
{ACAD_REACTORS
330
66
102
}
330
66
100
DictionaryVariables
280
     0
  1
1
  0
ENDSEC
  0
EOF
